Thread Rating:
  • 0 Vote(s) - 0 Average
  • 1
  • 2
  • 3
  • 4
  • 5

[-]
Tags
bluray avc 1080p zoolander hd ma 1 remux 2001 dts 5

 
  Zoolander (2001) Bluray Remux 1080p AVC DTS-HD MA 5.1
#1
Zoolander (2001) Bluray Remux 1080p AVC DTS-HD MA 5.1

[Image: tt0196229.jpg]

[Image: imdb.png]
https://www.imdb.com/title/tt0196229/

[Image: info.png]
Zoolander 2001 EN.mkv
Format                      : Matroska
Format version              : Version 4 / Version 2
File size                   : 24.1 GiB
Duration                    : 1 h 29 min
Overall bit rate mode       : Variable
Overall bit rate            : 38.7 Mb/s
Movie name                  : Zoolander
Encoded date                : UTC 2016-07-04 16:56:08
Writing application         : mkvmerge v8.3.0 ('Over the Horizon') 64bit
Writing library             : libebml v1.3.1 + libmatroska v1.4.2

Video
ID                          : 1
Format                      : AVC
Format/Info                 : Advanced Video Codec
Format profile              : [email protected]
Format settings, CABAC      : Yes
Format settings, ReFrames   : 4 frames
Codec ID                    : V_MPEG4/ISO/AVC
Duration                    : 1 h 29 min
Bit rate mode               : Variable
Bit rate                    : 34.3 Mb/s
Maximum bit rate            : 36.5 Mb/s
Width                       : 1 920 pixels
Height                      : 1 080 pixels
Display aspect ratio        : 16:9
Frame rate mode             : Constant
Frame rate                  : 23.976 (24000/1001) FPS
Color space                 : YUV
Chroma subsampling          : 4:2:0
Bit depth                   : 8 bits
Scan type                   : Progressive
Bits/(Pixel*Frame)          : 0.689
Stream size                 : 21.4 GiB (89%)
Title                       : Zoolander
Language                    : English
Default                     : Yes
Forced                      : No

Audio
ID                          : 2
Format                      : DTS
Format/Info                 : Digital Theater Systems
Format profile              : MA / Core
Mode                        : 16
Format settings, Endianness : Big
Codec ID                    : A_DTS
Duration                    : 1 h 29 min
Bit rate mode               : Variable / Constant
Bit rate                    : 4 399 kb/s / 1 509 kb/s
Channel(s)                  : 6 channels
Channel positions           : Front: L C R, Side: L R, LFE
Sampling rate               : 48.0 kHz
Frame rate                  : 93.750 FPS (512 spf)
Bit depth                   : 24 bits
Compression mode            : Lossless / Lossy
Stream size                 : 2.74 GiB (11%)
Title                       : English
Language                    : English
Default                     : Yes
Forced                      : No

Text #1
ID                          : 3
Format                      : PGS
Muxing mode                 : zlib
Codec ID                    : S_HDMV/PGS
Codec ID/Info               : Picture based subtitle format used on BDs/HD-DVDs
Duration                    : 1 h 22 min
Bit rate                    : 13.6 kb/s
Count of elements           : 2458
Stream size                 : 7.99 MiB (0%)
Title                       : English
Language                    : English
Default                     : No
Forced                      : No

Text #2
ID                          : 4
Format                      : PGS
Muxing mode                 : zlib
Codec ID                    : S_HDMV/PGS
Codec ID/Info               : Picture based subtitle format used on BDs/HD-DVDs
Duration                    : 1 h 22 min
Bit rate                    : 15.9 kb/s
Count of elements           : 2016
Stream size                 : 9.33 MiB (0%)
Title                       : Turkish
Language                    : Turkish
Default                     : Yes
Forced                      : No

[Image: vlcsnap-error519-jpg-fb1b92e8bd8680317c2...e9273b.jpg]

[Image: vlcsnap-error693-jpg-d21fa2177d5c5fce12e...b0f681.jpg]

[Image: tdown.png]

For Only Vip Members

Zoolander (2001) Bluray Remux 1080p AVC DTS-HD MA 5.1 VIP
Reply


Possibly Related Threads…
Thread Author Replies Views Last Post
  15 Minutes 2001 1080p Blu-ray Remux AVC DTS-HD MA 5.1 - KRaLiMaRKo KAiJu 0 19 05-10-2022, 09:21 AM
Last Post: KAiJu
  Ticker 2001 1080p BluRay REMUX AVC DTS-HD MA 5.1-EPSiLON KAiJu 0 31 04-19-2022, 12:41 PM
Last Post: KAiJu
  The 51st State 2001 1080p Blu-ray Remux AVC DTS-HD MA 5.1 - KRaLiMaRKo KAiJu 0 40 04-10-2022, 10:49 PM
Last Post: KAiJu
  Jimmy Neutron Boy Genius 2001 1080p Remux AVC TrueHD 5 1-playBD KAiJu 0 45 03-27-2022, 08:19 PM
Last Post: KAiJu
  Just Visiting 2001 1080p Blu-ray Remux AVC DTS-HD MA 5.1-HDT KAiJu 0 67 03-13-2022, 01:20 PM
Last Post: KAiJu

Forum Jump:


Users browsing this thread: 1 Guest(s)

Powered By MyBB
RSS RSS Syndication
Updated By iAndrew | 2022