Thread Rating:
  • 0 Vote(s) - 0 Average
  • 1
  • 2
  • 3
  • 4
  • 5

[-]
Tags
bluray avc 1080p 2016 zoolander hd ma 1 2 remux dts 5

  Zoolander 2 (2016) Bluray Remux 1080p AVC DTS-HD MA 5.1
#1
Zoolander 2 (2016) Bluray Remux 1080p AVC DTS-HD MA 5.1

[Image: tt1608290.jpg]

[Image: imdb.png]
https://www.imdb.com/title/tt1608290/

[Image: info.png]
Zoolander 2 2016 EN.mkv
Format                      : Matroska
Format version              : Version 4 / Version 2
File size                   : 22.9 GiB
Duration                    : 1 h 41 min
Overall bit rate mode       : Variable
Overall bit rate            : 32.1 Mb/s
Movie name                  : Zoolander 2
Encoded date                : UTC 2016-07-04 17:29:06
Writing application         : mkvmerge v8.3.0 ('Over the Horizon') 64bit
Writing library             : libebml v1.3.1 + libmatroska v1.4.2

Video
ID                          : 1
Format                      : AVC
Format/Info                 : Advanced Video Codec
Format profile              : [email protected]
Format settings, CABAC      : Yes
Format settings, ReFrames   : 4 frames
Codec ID                    : V_MPEG4/ISO/AVC
Duration                    : 1 h 41 min
Bit rate mode               : Variable
Bit rate                    : 25.9 Mb/s
Maximum bit rate            : 28.0 Mb/s
Width                       : 1 920 pixels
Height                      : 1 080 pixels
Display aspect ratio        : 16:9
Frame rate mode             : Constant
Frame rate                  : 23.976 (24000/1001) FPS
Color space                 : YUV
Chroma subsampling          : 4:2:0
Bit depth                   : 8 bits
Scan type                   : Progressive
Bits/(Pixel*Frame)          : 0.520
Stream size                 : 18.4 GiB (81%)
Title                       : Zoolander 2
Language                    : English
Default                     : Yes
Forced                      : No

Audio
ID                          : 2
Format                      : DTS
Format/Info                 : Digital Theater Systems
Format profile              : MA / Core
Mode                        : 16
Format settings, Endianness : Big
Codec ID                    : A_DTS
Duration                    : 1 h 41 min
Bit rate mode               : Variable / Constant
Bit rate                    : 6 239 kb/s / 1 509 kb/s
Channel(s)                  : 8 channels / 6 channels
Channel positions           : Front: L C R, Side: L R, Back: L R, LFE / Front: L C R, Side: L R, LFE
Sampling rate               : 48.0 kHz
Frame rate                  : 93.750 FPS (512 spf)
Bit depth                   : 24 bits
Compression mode            : Lossless / Lossy
Stream size                 : 4.44 GiB (19%)
Title                       : English
Language                    : English
Default                     : Yes
Forced                      : No

Text #1
ID                          : 3
Format                      : PGS
Muxing mode                 : zlib
Codec ID                    : S_HDMV/PGS
Codec ID/Info               : Picture based subtitle format used on BDs/HD-DVDs
Duration                    : 1 h 33 min
Bit rate                    : 12.3 kb/s
Count of elements           : 2766
Stream size                 : 8.25 MiB (0%)
Title                       : English
Language                    : English
Default                     : No
Forced                      : No

Text #2
ID                          : 4
Format                      : PGS
Muxing mode                 : zlib
Codec ID                    : S_HDMV/PGS
Codec ID/Info               : Picture based subtitle format used on BDs/HD-DVDs
Duration                    : 1 h 40 min
Bit rate                    : 10.8 kb/s
Count of elements           : 2564
Stream size                 : 7.77 MiB (0%)
Title                       : Turkish
Language                    : Turkish
Default                     : Yes
Forced                      : No

[Image: vlcsnap-error105-jpg-c7cda36f4f7c6aafb3f...34c8f1.jpg]

[Image: vlcsnap-error462-jpg-ac1ca92cdc645f6b783...05de41.jpg]

[Image: tdown.png]

For Only Vip Members

Zoolander 2 (2016) Bluray Remux 1080p AVC DTS-HD MA 5.1 VIP
Reply


Possibly Related Threads…
Thread Author Replies Views Last Post
  Zoolander (2001) Bluray Remux 1080p AVC DTS-HD MA 5.1 admin 0 652 05-08-2019, 06:43 PM
Last Post: admin

Forum Jump:


Users browsing this thread: 3 Guest(s)

Powered By MyBB
Theme By Audentio Design
Updated By iAndrew | 2018