Thread Rating:
  • 0 Vote(s) - 0 Average
  • 1
  • 2
  • 3
  • 4
  • 5

[-]
Tags
bluray 1969 avc 1080p dd2 remux z

  Z (1969) Bluray Remux 1080p AVC DD2.0
#1
Z (1969) Bluray Remux 1080p AVC DD2.0

[Image: tt0065234.jpg]

[Image: imdb.png]
https://www.imdb.com/title/tt0065234/

[Image: info.png]
Z 1969 FR.mkv
Format                      : Matroska
Format version              : Version 4 / Version 2
File size                   : 26.0 GiB
Duration                    : 2 h 1 min
Overall bit rate mode       : Variable
Overall bit rate            : 30.5 Mb/s
Movie name                  : Z
Encoded date                : UTC 2017-07-09 17:51:06
Writing application         : mkvmerge v13.0.0 ('The Juggler') 64bit
Writing library             : libebml v1.3.4 + libmatroska v1.4.5

Video
ID                          : 1
Format                      : AVC
Format/Info                 : Advanced Video Codec
Format profile              : [email protected]
Format settings, CABAC      : Yes
Format settings, ReFrames   : 4 frames
Format settings, GOP        : M=3, N=24
Codec ID                    : V_MPEG4/ISO/AVC
Duration                    : 2 h 1 min
Bit rate mode               : Variable
Bit rate                    : 30.0 Mb/s
Maximum bit rate            : 35.0 Mb/s
Width                       : 1 920 pixels
Height                      : 1 080 pixels
Display aspect ratio        : 16:9
Frame rate mode             : Constant
Frame rate                  : 25.000 FPS
Standard                    : PAL
Color space                 : YUV
Chroma subsampling          : 4:2:0
Bit depth                   : 8 bits
Scan type                   : MBAFF
Scan type, store method     : Interleaved fields
Scan order                  : Top Field First
Bits/(Pixel*Frame)          : 0.579
Stream size                 : 25.5 GiB (98%)
Title                       : Z 1969
Language                    : French
Default                     : Yes
Forced                      : No
Color range                 : Limited
Color primaries             : BT.709
Transfer characteristics    : BT.709
Matrix coefficients         : BT.709

Audio
ID                          : 2
Format                      : AC-3
Format/Info                 : Audio Coding 3
Format settings, Endianness : Big
Codec ID                    : A_AC3
Duration                    : 2 h 1 min
Bit rate mode               : Constant
Bit rate                    : 448 kb/s
Channel(s)                  : 2 channels
Channel positions           : Front: L R
Sampling rate               : 48.0 kHz
Frame rate                  : 31.250 FPS (1536 spf)
Bit depth                   : 16 bits
Compression mode            : Lossy
Stream size                 : 390 MiB (1%)
Title                       : French
Language                    : French
Service kind                : Complete Main
Default                     : Yes
Forced                      : No

Text #1
ID                          : 3
Format                      : PGS
Muxing mode                 : zlib
Codec ID                    : S_HDMV/PGS
Codec ID/Info               : Picture based subtitle format used on BDs/HD-DVDs
Duration                    : 1 h 59 min
Bit rate                    : 87.3 kb/s
Count of elements           : 3410
Stream size                 : 74.6 MiB (0%)
Title                       : English
Language                    : English
Default                     : No
Forced                      : No

Text #2
ID                          : 4
Format                      : PGS
Muxing mode                 : zlib
Codec ID                    : S_HDMV/PGS
Codec ID/Info               : Picture based subtitle format used on BDs/HD-DVDs
Duration                    : 1 h 59 min
Bit rate                    : 27.8 kb/s
Count of elements           : 3168
Stream size                 : 23.8 MiB (0%)
Title                       : Turkish
Language                    : Turkish
Default                     : Yes
Forced                      : No

[Image: vlcsnap-error069-jpg-2e040484b6c64f3139c...a09a84.jpg]

[Image: vlcsnap-error676-jpg-5aa646b0122d8f4a49a...4842cc.jpg]

[Image: tdown.png]

For Only Vip Members

Z (1969) Bluray Remux 1080p AVC DD2.0 VIP
Reply


Possibly Related Threads…
Thread Author Replies Views Last Post
  Marquis de Sade Justine (1969) Bluray Remux 1080p AVC DTS 2.0 admin 0 53 08-30-2019, 11:48 AM
Last Post: admin
  True Grit (1969) Bluray Remux 1080p AVC DTS-HD MA 5.1 admin 0 213 05-30-2019, 12:59 PM
Last Post: admin
  Midnight Cowboy (1969) Bluray Remux 1080p AVC DTS-HD MA 5.1 admin 0 184 05-14-2019, 02:14 PM
Last Post: admin
  Sabata (1969) Bluray Remux 1080p AVC DD 2.0 admin 0 152 05-12-2019, 06:17 PM
Last Post: admin

Forum Jump:


Users browsing this thread: 1 Guest(s)

Powered By MyBB
Theme By Audentio Design
Updated By iAndrew | 2018