Thread Rating:
  • 0 Vote(s) - 0 Average
  • 1
  • 2
  • 3
  • 4
  • 5

[-]
Tags
dd5 474p warrior 1995 x264 ligh dd2 s06 princess 1 s01 2001 564p xena dvdrip 480p

 
  Xena Warrior Princess (1995-2001) S01-S06 DVDRip 564p/474p/480p DD2.0/DD5.1 x264-LiGH
#1
Xena Warrior Princess (1995-2001) S01-S06 DVDRip 564p/474p/480p DD2.0/DD5.1 x264-LiGHTSPEED

[Image: tt0112230.jpg]

[Image: imdb.png]
https://www.imdb.com/title/tt0112230/

[Image: info.png]
General
Unique ID                                : 190044642969181218402784012684436027581 (0x8EF944515C74C3AFBD82E397DF7DB8BD)
Complete name                            : xena.e002.chariots.of.war.pal.dvd.dd2.0.x264hi10-lightspeed.mkv
Format                                  : Matroska
Format version                          : Version 4 / Version 2
File size                                : 1.11 GiB
Duration                                : 44mn 16s
Overall bit rate                        : 3 587 Kbps
Encoded date                            : UTC 2015-03-19 03:57:07
Writing application                      : mkvmerge v6.9.1 ('Blue Panther') 64bit built on Apr 18 2014 18:23:38
Writing library                          : libebml v1.3.0 + libmatroska v1.4.1

Video
ID                                      : 1
Format                                  : AVC
Format/Info                              : Advanced Video Codec
Format profile                          : High [email protected]
Format settings, CABAC                  : Yes
Format settings, ReFrames                : 5 frames
Codec ID                                : V_MPEG4/ISO/AVC
Duration                                : 44mn 16s
Bit rate                                : 3 324 Kbps
Width                                    : 688 pixels
Height                                  : 564 pixels
Display aspect ratio                    : 4:3
Original display aspect ratio            : 4:3
Frame rate mode                          : Constant
Frame rate                              : 23.976 (24000/1001) fps
Color space                              : YUV
Chroma subsampling                      : 4:2:0
Bit depth                                : 10 bits
Scan type                                : Progressive
Bits/(Pixel*Frame)                      : 0.357
Stream size                              : 1.03 GiB (93%)
Writing library                          : x264 core 142 r2431 ac76440
Encoding settings                        : cabac=1 / ref=5 / deblock=1:-3:-3 / analyse=0x3:0x133 / me=umh / subme=8 / psy=1 / psy_rd=1.00:0.00 / mixed_ref=1 / me_range=24 / chroma_me=1 / trellis=2 / 8x8dct=1 / cqm=0 / deadzone=21,11 / fast_pskip=1 / chroma_qp_offset=-2 / threads=12 / lookahead_threads=3 / sliced_threads=0 / nr=0 / decimate=0 / interlaced=0 / bluray_compat=0 / constrained_intra=0 / bframes=6 / b_pyramid=2 / b_adapt=2 / b_bias=0 / direct=3 / weightb=1 / open_gop=0 / weightp=2 / keyint=240 / keyint_min=23 / scenecut=40 / intra_refresh=0 / rc_lookahead=40 / rc=crf / mbtree=1 / crf=16.0 / qcomp=0.60 / qpmin=10 / qpmax=51 / qpstep=4 / ip_ratio=1.40 / aq=1:1.00
Default                                  : Yes
Forced                                  : No

Audio
ID                                      : 2
Format                                  : AC-3
Format/Info                              : Audio Coding 3
Mode extension                          : CM (complete main)
Format settings, Endianness              : Big
Codec ID                                : A_AC3
Duration                                : 44mn 16s
Bit rate mode                            : Constant
Bit rate                                : 192 Kbps
Channel(s)                              : 2 channels
Channel positions                        : Front: L R
Sampling rate                            : 48.0 KHz
Frame rate                              : 31.250 fps (1536 spf)
Compression mode                        : Lossy
Stream size                              : 60.8 MiB (5%)
Default                                  : Yes
Forced                                  : No


===========================================================================================================


General
Unique ID                                : 188386434633554003606773269698404631118 (0x8DB9E855B3C01BBD8F6CB8160593424E)
Complete name                            : xena.e069.adventures.in.the.sin.trade.part.one.ntsc.dvd.dd5.1.x264hi10-lightspeed.mkv
Format                                  : Matroska
Format version                          : Version 4 / Version 2
File size                                : 1.22 GiB
Duration                                : 44mn 22s
Overall bit rate                        : 3 920 Kbps
Encoded date                            : UTC 2015-03-29 05:55:42
Writing application                      : mkvmerge v6.9.1 ('Blue Panther') 64bit built on Apr 18 2014 18:23:38
Writing library                          : libebml v1.3.0 + libmatroska v1.4.1

Video
ID                                      : 1
Format                                  : AVC
Format/Info                              : Advanced Video Codec
Format profile                          : High [email protected]
Format settings, CABAC                  : Yes
Format settings, ReFrames                : 5 frames
Codec ID                                : V_MPEG4/ISO/AVC
Duration                                : 44mn 22s
Bit rate                                : 3 394 Kbps
Width                                    : 698 pixels
Height                                  : 474 pixels
Display aspect ratio                    : 4:3
Original display aspect ratio            : 4:3
Frame rate mode                          : Constant
Frame rate                              : 23.976 (24000/1001) fps
Color space                              : YUV
Chroma subsampling                      : 4:2:0
Bit depth                                : 10 bits
Scan type                                : Progressive
Bits/(Pixel*Frame)                      : 0.428
Stream size                              : 1.05 GiB (87%)
Writing library                          : x264 core 142 r2431 ac76440
Encoding settings                        : cabac=1 / ref=5 / deblock=1:-3:-3 / analyse=0x3:0x133 / me=umh / subme=8 / psy=1 / psy_rd=1.00:0.00 / mixed_ref=1 / me_range=24 / chroma_me=1 / trellis=2 / 8x8dct=1 / cqm=0 / deadzone=21,11 / fast_pskip=1 / chroma_qp_offset=-2 / threads=12 / lookahead_threads=3 / sliced_threads=0 / nr=0 / decimate=0 / interlaced=0 / bluray_compat=0 / constrained_intra=0 / bframes=6 / b_pyramid=2 / b_adapt=2 / b_bias=0 / direct=3 / weightb=1 / open_gop=0 / weightp=2 / keyint=240 / keyint_min=23 / scenecut=40 / intra_refresh=0 / rc_lookahead=40 / rc=crf / mbtree=1 / crf=16.0 / qcomp=0.60 / qpmin=10 / qpmax=51 / qpstep=4 / ip_ratio=1.40 / aq=1:1.00
Default                                  : Yes
Forced                                  : No

Audio
ID                                      : 2
Format                                  : AC-3
Format/Info                              : Audio Coding 3
Mode extension                          : CM (complete main)
Format settings, Endianness              : Big
Codec ID                                : A_AC3
Duration                                : 44mn 22s
Bit rate mode                            : Constant
Bit rate                                : 448 Kbps
Channel(s)                              : 6 channels
Channel positions                        : Front: L C R, Side: L R, LFE
Sampling rate                            : 48.0 KHz
Frame rate                              : 31.250 fps (1536 spf)
Compression mode                        : Lossy
Stream size                              : 142 MiB (11%)
Default                                  : Yes
Forced                                  : No

[Image: 9AbLjY.jpg]

[Image: hdS8Ea.jpg]

[Image: tdown.png]

For Only Vip Members

Xena Warrior Princess (1995-2001) S01-S06 DVDRip 564p/474p/480p DD2.0/DD5.1 x264-LiGH VIP
Reply


Possibly Related Threads…
Thread Author Replies Views Last Post
  Chappelles Show (2003-2006) S01-S03 WEBDL 480p DD 2.0 x264 AbrA 0 66 08-16-2021, 10:57 AM
Last Post: AbrA
  Trailer Park Boys (2001-2018) S01-S12 WEBDL 1080p-576p x264-HUS AbrA 0 51 08-13-2021, 11:11 AM
Last Post: AbrA
  Trailer Park Boys (2001-2018) S01-S12 WEBDL DVDRip 1080p-480p x264 AbrA 0 56 08-11-2021, 11:51 AM
Last Post: AbrA
  Recess (1997-2001) S01-S03 WEBDL 480p x264 AbrA 0 46 08-06-2021, 08:25 PM
Last Post: AbrA
  Star Trek Deep Space Nine (1993-1999) DVDRip DD 5.1 x264-lightspeed AbrA 0 52 03-27-2021, 11:17 AM
Last Post: AbrA

Forum Jump:


Users browsing this thread: 1 Guest(s)

Powered By MyBB
RSS RSS Syndication
Updated By iAndrew | 2021