Thread Rating:
  • 0 Vote(s) - 0 Average
  • 1
  • 2
  • 3
  • 4
  • 5

[-]
Tags
2000 bluray x264 2013 1080p prodji x men dts collection

  X-Men Collection (2000-2013) BluRay 1080p DTS x264-PRoDJi
#1
X-Men Collection (2000-2013) BluRay 1080p DTS x264-PRoDJi

[Image: x-men.jpg]

[Image: imdb.png]
https://www.imdb.com/title/tt0120903/
https://www.imdb.com/title/tt0290334/
https://www.imdb.com/title/tt0376994/
https://www.imdb.com/title/tt0458525/
https://www.imdb.com/title/tt1270798/
https://www.imdb.com/title/tt1430132/

[Image: info.png]
Format : Matroska
Format version : Version 4
File size : 8.25 GiB
Duration : 1 h 44 min
Overall bit rate : 11.3 Mb/s
Encoded date : UTC 2014-12-16 15:35:46
Writing application : mkvmerge v7.4.0 ('Circles') 64bit built on Dec 12 2014 12:19:56
Writing library : libebml v1.3.0 + libmatroska v1.4.1

Video
ID : 1
Format : AVC
Format/Info : Advanced Video Codec
Format profile : [email protected]
Format settings : CABAC / 4 Ref Frames
Format settings, CABAC : Yes
Format settings, RefFrames : 4 frames
Format settings, GOP : N=1
Codec ID : V_MPEG4/ISO/AVC
Duration : 1 h 44 min
Bit rate : 9 364 kb/s
Width : 1 920 pixels
Height : 816 pixels
Display aspect ratio : 2.35:1
Frame rate mode : Constant
Frame rate : 23.976 FPS
Color space : YUV
Chroma subsampling : 4:2:0
Bit depth : 8 bits
Scan type : Progressive
Bits/(Pixel*Frame) : 0.249
Stream size : 6.82 GiB (83%)
Writing library : x264 core 67 r1139M 1024283
Encoding settings : cabac=1 / ref=4 / deblock=1:-1:-1 / analyse=0x3:0x113 / me=hex / subme=2 / psy_rd=0.0:0.0 / mixed_ref=0 / me_range=16 / chroma_me=1 / trellis=0 / 8x8dct=1 / cqm=2 / deadzone=21,11 / chroma_qp_offset=0 / threads=2 / nr=0 / decimate=1 / mbaff=0 / bframes=3 / b_pyramid=0 / b_adapt=1 / b_bias=0 / direct=3 / wpredb=1 / keyint=250 / keyint_min=25 / scenecut=40 / rc=2pass / bitrate=9364 / ratetol=1.0 / qcomp=0.60 / qpmin=10 / qpmax=51 / qpstep=4 / cplxblur=20.0 / qblur=0.5 / vbv_maxrate=50000 / vbv_bufsize=50000 / ip_ratio=1.40 / pb_ratio=1.30 / aq=1:1.00
Language : English
Default : Yes
Forced : No

Audio #1
ID : 2
Format : DTS
Format/Info : Digital Theater Systems
Codec ID : A_DTS
Duration : 1 h 44 min
Bit rate mode : Constant
Bit rate : 1 510 kb/s
Channel(s) : 6 channels
Channel layout : C L R Ls Rs LFE
Sampling rate : 48.0 kHz
Frame rate : 93.750 FPS (512 SPF)
Bit depth : 24 bits
Compression mode : Lossy
Stream size : 1.10 GiB (13%)
Title : [email protected] 6ch
Language : English
Default : Yes
Forced : No

Audio #2
ID : 5
Format : AC-3
Format/Info : Audio Coding 3
Commercial name : Dolby Digital
Codec ID : A_AC3
Duration : 1 h 44 min
Bit rate mode : Constant
Bit rate : 448 kb/s
Channel(s) : 6 channels
Channel layout : L R C LFE Ls Rs
Sampling rate : 48.0 kHz
Frame rate : 31.250 FPS (1536 SPF)
Bit depth : 16 bits
Compression mode : Lossy
Stream size : 334 MiB (4%)
Title : [email protected] 6ch
Language : Turkish
Service kind : Complete Main
Default : No
Forced : No

Text #1
ID : 3
Format : UTF-8
Codec ID : S_TEXT/UTF8
Codec ID/Info : UTF-8 Plain Text
Duration : 1 h 34 min
Bit rate : 34 b/s
Count of elements : 608
Stream size : 23.8 KiB (0%)
Language : English
Default : No
Forced : No

Text #2
ID : 4
Format : UTF-8
Codec ID : S_TEXT/UTF8
Codec ID/Info : UTF-8 Plain Text
Duration : 1 h 34 min
Bit rate : 32 b/s
Count of elements : 569
Stream size : 22.4 KiB (0%)
Language : Turkish
Default : No
Forced : No

Menu
00:00:00.000 : en:00:00:00.000
00:01:19.288 : en:00:01:19.288
00:04:18.133 : en:00:04:18.133
00:05:56.022 : en:00:05:56.022
00:07:56.059 : en:00:07:56.059
00:09:23.688 : en:00:09:23.688
00:11:37.697 : en:00:11:37.697
00:14:38.503 : en:00:14:38.503
00:18:01.664 : en:00:18:01.664
00:20:49.665 : en:00:20:49.665
00:22:09.119 : en:00:22:09.119
00:23:58.646 : en:00:23:58.646
00:28:45.849 : en:00:28:45.849
00:29:55.168 : en:00:29:55.168
00:32:06.508 : en:00:32:06.508
00:33:37.682 : en:00:33:37.682
00:36:37.237 : en:00:36:37.237
00:38:25.178 : en:00:38:25.178
00:41:11.886 : en:00:41:11.886
00:44:13.860 : en:00:44:13.860
00:45:50.456 : en:00:45:50.456
00:48:41.544 : en:00:48:41.544
00:50:22.436 : en:00:50:22.436
00:52:05.831 : en:00:52:05.831
00:54:58.212 : en:00:54:58.212
00:58:11.154 : en:00:58:11.154
00:59:19.765 : en:00:59:19.765
01:01:54.961 : en:01:01:54.961
01:03:17.627 : en:01:03:17.627
01:06:02.375 : en:01:06:02.375
01:08:39.782 : en:01:08:39.782
01:12:21.379 : en:01:12:21.379
01:18:03.804 : en:01:18:03.804
01:20:53.223 : en:01:20:53.223
01:24:28.063 : en:01:24:28.063
01:26:58.422 : en:01:26:58.422
01:29:08.510 : en:01:29:08.510
01:31:47.210 : en:01:31:47.210
01:33:12.879 : en:01:33:12.879
01:35:12.123 : en:01:35:12.123

[Image: 1.jpg]

[Image: 2.jpg]

[Image: tdown.png]

For Only Vip Members
Reply


Possibly Related Threads…
Thread Author Replies Views Last Post
  Magnolia (1999) Bluray 1080p EN-TR DTS x264-PRoDJi AbrA 0 129 06-20-2020, 08:00 PM
Last Post: AbrA
  Dave (1993) BluRay 1080p EN-TR DTS 2.0 x264-PRoDJi AbrA 0 187 06-10-2020, 09:05 AM
Last Post: AbrA
  Hollow Man (2000) DC Bluray 1080p EN-TR DD x264-HDMaNiAcS AbrA 1 241 05-02-2020, 02:10 PM
Last Post: Prometheus
  The 6th Day (2000) Bluray 1080p EN-TR DD 5.1 x264-TiMELORDS AbrA 0 236 04-28-2020, 03:44 PM
Last Post: AbrA
  Fear and Loathing In Las Vegas (1998) Criterion Collection Bluray 1080p EN-TR DD 5.1 AbrA 0 232 04-09-2020, 07:01 AM
Last Post: AbrA

Forum Jump:


Users browsing this thread: 1 Guest(s)

Powered By MyBB
Theme By Audentio Design
Updated By iAndrew | 2018