Thread Rating:
  • 0 Vote(s) - 0 Average
  • 1
  • 2
  • 3
  • 4
  • 5

[-]
Tags
6 wrong bluray avc 1080p 2003 turn 4 hd ma 1 2 remux 2014 dts 5 3

  Wrong Turn 1-2-3-4-5-6 (2003-2014) Bluray Remux 1080p AVC DTS-HD MA 5.1
#1
Wrong Turn 1-2-3-4-5-6 (2003-2014) Bluray Remux 1080p AVC DTS-HD MA 5.1

[Image: tt0295700.jpg]

[Image: imdb.png]
https://www.imdb.com/title/tt0295700/
https://www.imdb.com/title/tt0804555/
https://www.imdb.com/title/tt1261978/
https://www.imdb.com/title/tt1865567/
https://www.imdb.com/title/tt2375779/
https://www.imdb.com/title/tt3612032/

[Image: info.png]
Wrong Turn 01 2003 EN.mkv
Format                      : Matroska
Format version              : Version 4 / Version 2
File size                   : 19.2 GiB
Duration                    : 1 h 24 min
Overall bit rate mode       : Variable
Overall bit rate            : 32.6 Mb/s
Movie name                  : Wrong Turn
Encoded date                : UTC 2014-09-27 20:03:29
Writing application         : mkvmerge v7.2.0 ('On Every Street') 64bit built on Sep 13 2014 15:52:10
Writing library             : libebml v1.3.0 + libmatroska v1.4.1

Video
ID                          : 1
Format                      : AVC
Format/Info                 : Advanced Video Codec
Format profile              : [email protected]
Format settings             : CABAC / 4 Ref Frames
Format settings, CABAC      : Yes
Format settings, ReFrames   : 4 frames
Codec ID                    : V_MPEG4/ISO/AVC
Duration                    : 1 h 24 min
Bit rate mode               : Variable
Bit rate                    : 28.1 Mb/s
Maximum bit rate            : 40.0 Mb/s
Width                       : 1 920 pixels
Height                      : 1 080 pixels
Display aspect ratio        : 16:9
Frame rate mode             : Constant
Frame rate                  : 23.976 (24000/1001) FPS
Color space                 : YUV
Chroma subsampling          : 4:2:0
Bit depth                   : 8 bits
Scan type                   : Progressive
Bits/(Pixel*Frame)          : 0.565
Stream size                 : 16.5 GiB (86%)
Title                       : Wrong Turn
Language                    : English
Default                     : Yes
Forced                      : No
Color range                 : Limited
Color primaries             : BT.709
Transfer characteristics    : BT.709
Matrix coefficients         : BT.709

Audio
ID                          : 2
Format                      : DTS
Format/Info                 : Digital Theater Systems
Format profile              : MA / Core
Codec ID                    : A_DTS
Duration                    : 1 h 24 min
Bit rate mode               : Variable / Constant
Bit rate                    : 4 437 kb/s / 1 509 kb/s
Channel(s)                  : 6 channels
Channel positions           : Front: L C R, Side: L R, LFE
Sampling rate               : 48.0 kHz
Frame rate                  : 93.750 FPS (512 SPF)
Bit depth                   : 24 bits
Compression mode            : Lossless / Lossy
Stream size                 : 2.61 GiB (14%)
Title                       : English
Language                    : English
Default                     : Yes
Forced                      : No

Text #1
ID                          : 3
Format                      : PGS
Muxing mode                 : zlib
Codec ID                    : S_HDMV/PGS
Codec ID/Info               : Picture based subtitle format used on BDs/HD-DVDs
Duration                    : 1 h 20 min
Bit rate                    : 7 997 b/s
Count of elements           : 1634
Stream size                 : 4.59 MiB (0%)
Title                       : English
Language                    : English
Default                     : No
Forced                      : No

Text #2
ID                          : 4
Format                      : PGS
Muxing mode                 : zlib
Codec ID                    : S_HDMV/PGS
Codec ID/Info               : Picture based subtitle format used on BDs/HD-DVDs
Duration                    : 1 h 14 min
Bit rate                    : 8 503 b/s
Count of elements           : 1086
Stream size                 : 4.52 MiB (0%)
Title                       : Turkish
Language                    : Turkish
Default                     : Yes
Forced                      : No

[Image: 32923756137_b1f02918e3_b.jpg]

[Image: 33990621488_7c751b73c4_b.jpg]

[Image: tdown.png]

For Only Vip Members

Wrong Turn 1-2-3-4-5-6 (2003-2014) Bluray Remux 1080p AVC DTS-HD MA 5.1 VIP
Reply
#2
thanks Brother  Smile
Reply


Possibly Related Threads…
Thread Author Replies Views Last Post
  Runaway Jury (2003) Bluray REMUX 1080p AVC DTS-HD 5.1-HUSe AbrA 0 38 05-31-2020, 05:26 PM
Last Post: AbrA
  Love Me If You Dare (2003) Bluray REMUX 1080p FR-TR AVC DD 5.1-HuSe admin 0 226 03-27-2020, 08:51 PM
Last Post: admin
  The Rundown (2003) Bluray Remux 1080p AVC TrueHD 5.1 admin 0 419 09-01-2019, 04:33 PM
Last Post: admin
  Dreamcatcher (2003) Bluray Remux 1080p AVC DTS-HD MA 5.1 admin 0 428 08-19-2019, 12:51 PM
Last Post: admin
  Battle Royale 1-2 (2000-2003) Bluray Remux 1080p AVC DTS-HD MA 5.1 admin 0 562 08-12-2019, 11:26 AM
Last Post: admin

Forum Jump:


Users browsing this thread: 1 Guest(s)

Powered By MyBB
Theme By Audentio Design
Updated By iAndrew | 2018