Thread Rating:
  • 0 Vote(s) - 0 Average
  • 1
  • 2
  • 3
  • 4
  • 5

[-]
Tags
wonder bluray avc 1080p 2017 7 1 remux truehd

  Wonder (2017) Bluray Remux 1080p AVC TrueHD 7.1
#1
Wonder (2017) Bluray Remux 1080p AVC TrueHD 7.1

[Image: tt2543472.jpg]

[Image: imdb.png]
https://www.imdb.com/title/tt2543472/

[Image: info.png]
Wonder 2017 EN.mkv
Format                      : Matroska
Format version              : Version 4 / Version 2
File size                   : 25.7 GiB
Duration                    : 1 h 53 min
Overall bit rate mode       : Variable
Overall bit rate            : 32.6 Mb/s
Movie name                  : Wonder
Encoded date                : UTC 2018-02-15 19:51:02
Writing application         : mkvmerge v20.0.0 ('I Am The Sun') 64-bit
Writing library             : libebml v1.3.5 + libmatroska v1.4.8

Video
ID                          : 1
Format                      : AVC
Format/Info                 : Advanced Video Codec
Format profile              : [email protected]
Format settings             : CABAC / 4 Ref Frames
Format settings, CABAC      : Yes
Format settings, ReFrames   : 4 frames
Codec ID                    : V_MPEG4/ISO/AVC
Duration                    : 1 h 53 min
Bit rate mode               : Variable
Bit rate                    : 29.0 Mb/s
Maximum bit rate            : 37.0 Mb/s
Width                       : 1 920 pixels
Height                      : 1 080 pixels
Display aspect ratio        : 16:9
Frame rate mode             : Constant
Frame rate                  : 23.976 (24000/1001) FPS
Color space                 : YUV
Chroma subsampling          : 4:2:0
Bit depth                   : 8 bits
Scan type                   : Progressive
Bits/(Pixel*Frame)          : 0.583
Stream size                 : 22.9 GiB (89%)
Title                       : Wonder
Language                    : English
Default                     : Yes
Forced                      : No

Audio
ID                          : 2
Format                      : TrueHD
Codec ID                    : A_TRUEHD
Duration                    : 1 h 53 min
Bit rate mode               : Variable
Bit rate                    : 3 497 kb/s
Maximum bit rate            : 4 647 kb/s
Channel(s)                  : 8 channels
Channel positions           : Front: L C R, Side: L R, Back: L R, LFE
Sampling rate               : 48.0 kHz
Frame rate                  : 1 200.000 FPS (40 SPF)
Compression mode            : Lossless
Stream size                 : 2.76 GiB (11%)
Title                       : English
Language                    : English
Default                     : Yes
Forced                      : No

Text #1
ID                          : 3
Format                      : PGS
Muxing mode                 : zlib
Codec ID                    : S_HDMV/PGS
Codec ID/Info               : Picture based subtitle format used on BDs/HD-DVDs
Duration                    : 1 h 44 min
Bit rate                    : 43.4 kb/s
Count of elements           : 2953
Stream size                 : 32.5 MiB (0%)
Title                       : English
Language                    : English
Default                     : No
Forced                      : No

Text #2
ID                          : 4
Format                      : PGS
Muxing mode                 : zlib
Codec ID                    : S_HDMV/PGS
Codec ID/Info               : Picture based subtitle format used on BDs/HD-DVDs
Duration                    : 1 h 44 min
Bit rate                    : 34.2 kb/s
Count of elements           : 2652
Stream size                 : 25.6 MiB (0%)
Title                       : Turkish
Language                    : Turkish
Default                     : Yes
Forced                      : No

[Image: fOEZOc.jpg]

[Image: S46WBm.jpg]

[Image: tdown.png]

For Only Vip Members

Wonder (2017) Bluray Remux 1080p AVC TrueHD 7.1 VIP
Reply


Possibly Related Threads…
Thread Author Replies Views Last Post
  Paradox (2017) Bluray Remux 1080p AVC TrueHD 5.1 admin 0 319 07-28-2019, 06:24 PM
Last Post: admin
  The Adventurers (2017) Bluray Remux 1080p AVC TrueHD 7.1 admin 0 356 07-18-2019, 07:15 PM
Last Post: admin
  Darkest Hour (2017) Bluray Remux 1080p AVC TrueHD 7.1 admin 0 380 06-30-2019, 11:39 AM
Last Post: admin
  Sky Hunter (2017) Bluray Remux 1080p AVC TrueHD 5.1 admin 0 372 06-23-2019, 07:49 PM
Last Post: admin
  Security (2017) Bluray Remux 1080p AVC TrueHD 5.1 admin 0 394 06-13-2019, 07:55 PM
Last Post: admin

Forum Jump:


Users browsing this thread: 1 Guest(s)

Powered By MyBB
Theme By Audentio Design
Updated By iAndrew | 2018