Thread Rating:
  • 0 Vote(s) - 0 Average
  • 1
  • 2
  • 3
  • 4
  • 5

[-]
Tags
bluray avc 1080p wasabi hd ma 1 remux 2001 dts 5

 
  Wasabi (2001) Bluray Remux 1080p AVC DTS-HD MA 5.1
#1
Wasabi (2001) Bluray Remux 1080p AVC DTS-HD MA 5.1

[Image: tt0281364.jpg]

[Image: imdb.png]
https://www.imdb.com/title/tt0281364/

[Image: info.png]
Wasabi 2001 FR.mkv
Format                      : Matroska
Format version              : Version 4 / Version 2
File size                   : 14.1 GiB
Duration                    : 1 h 33 min
Overall bit rate mode       : Variable
Overall bit rate            : 21.4 Mb/s
Movie name                  : Wasabi
Encoded date                : UTC 2017-08-17 23:48:34
Writing application         : mkvmerge v14.0.0 ('Flow') 64bit
Writing library             : libebml v1.3.4 + libmatroska v1.4.5

Video
ID                          : 1
Format                      : AVC
Format/Info                 : Advanced Video Codec
Format profile              : [email protected]
Format settings             : CABAC / 4 Ref Frames
Format settings, CABAC      : Yes
Format settings, ReFrames   : 4 frames
Codec ID                    : V_MPEG4/ISO/AVC
Duration                    : 1 h 33 min
Bit rate mode               : Variable
Bit rate                    : 19.0 Mb/s
Maximum bit rate            : 40.0 Mb/s
Width                       : 1 920 pixels
Height                      : 1 080 pixels
Display aspect ratio        : 16:9
Frame rate mode             : Constant
Frame rate                  : 23.976 (24000/1001) FPS
Color space                 : YUV
Chroma subsampling          : 4:2:0
Bit depth                   : 8 bits
Scan type                   : Progressive
Bits/(Pixel*Frame)          : 0.382
Stream size                 : 12.4 GiB (89%)
Title                       : Wasabi
Language                    : French
Default                     : Yes
Forced                      : No
Color range                 : Limited
Color primaries             : BT.709
Transfer characteristics    : BT.709
Matrix coefficients         : BT.709

Audio
ID                          : 2
Format                      : DTS
Format/Info                 : Digital Theater Systems
Format profile              : MA / Core
Codec ID                    : A_DTS
Duration                    : 1 h 33 min
Bit rate mode               : Variable / Constant
Bit rate                    : 2 440 kb/s / 1 509 kb/s
Channel(s)                  : 6 channels
Channel positions           : Front: L C R, Side: L R, LFE
Sampling rate               : 48.0 kHz
Frame rate                  : 93.750 FPS (512 SPF)
Bit depth                   : 16 bits
Compression mode            : Lossless / Lossy
Stream size                 : 1.60 GiB (11%)
Title                       : French
Language                    : French
Default                     : Yes
Forced                      : No

Text
ID                          : 3
Format                      : PGS
Muxing mode                 : zlib
Codec ID                    : S_HDMV/PGS
Codec ID/Info               : Picture based subtitle format used on BDs/HD-DVDs
Duration                    : 1 h 26 min
Bit rate                    : 21.6 kb/s
Count of elements           : 1472
Stream size                 : 13.4 MiB (0%)
Title                       : Turkish
Language                    : Turkish
Default                     : Yes
Forced                      : No

[Image: vlcsnap-error419-jpg-8c0ed0ed6b06e30854c...52aa52.jpg]

[Image: vlcsnap-error689-jpg-9fe718956daffa266d2...d50e8e.jpg]

[Image: tdown.png]

For Only Vip Members

Wasabi (2001) Bluray Remux 1080p AVC DTS-HD MA 5.1 VIP
Reply


Possibly Related Threads…
Thread Author Replies Views Last Post
  Final Fantasy The Spirits Within (2001) Bluray REMUX 1080p AVC LPCM 5.1-HUS AbrA 0 8 07-27-2021, 11:59 AM
Last Post: AbrA
  Serendipity 2001 1080p BluRay REMUX AVC DTS-HD MA 5.1-EPSiLON KAiJu 0 51 06-04-2021, 03:17 PM
Last Post: KAiJu
  Rat Race 2001 1080p Remux AVC DTS-HD MA 5.1-playBD KAiJu 0 40 06-04-2021, 06:44 AM
Last Post: KAiJu
  Training Day 2001 Repack 1080p Blu-ray Remux VC-1 TrueHD 5.1 - KRaLiMaRKo KAiJu 0 204 02-01-2021, 11:51 AM
Last Post: KAiJu
  Impostor 2001 BluRay 1080p DTS-HD MA 5.1 AVC REMUX-FraMeSToR KAiJu 0 316 12-27-2020, 07:55 PM
Last Post: KAiJu

Forum Jump:


Users browsing this thread: 1 Guest(s)

Powered By MyBB
RSS RSS Syndication
Updated By iAndrew | 2021