Thread Rating:
  • 0 Vote(s) - 0 Average
  • 1
  • 2
  • 3
  • 4
  • 5

[-]
Tags
a dd bluray thousand city avc 1080p of 2017 the valerian and 1 remux 5 planets

 
  Valerian and the City of a Thousand Planets (2017) Bluray Remux 1080p AVC DD 5.1
#1
Valerian and the City of a Thousand Planets (2017) Bluray Remux 1080p AVC DD 5.1

[Image: tt2239822.jpg]

[Image: imdb.png]
https://www.imdb.com/title/tt2239822/

[Image: info.png]
Valerian and the City of a Thousand Planets 2017 EN.mkv
Format                      : Matroska
Format version              : Version 4 / Version 2
File size                   : 23.6 GiB
Duration                    : 2 h 17 min
Overall bit rate mode       : Variable
Overall bit rate            : 24.7 Mb/s
Movie name                  : Valerian and the City of a Thousand Planets
Encoded date                : UTC 2017-11-15 09:30:26
Writing application         : mkvmerge v17.0.0 ('Be Ur Friend') 64-bit
Writing library             : libebml v1.3.5 + libmatroska v1.4.8

Video
ID                          : 1
Format                      : AVC
Format/Info                 : Advanced Video Codec
Format profile              : [email protected]
Format settings, CABAC      : Yes
Format settings, ReFrames   : 4 frames
Format settings, GOP        : M=1, N=12
Codec ID                    : V_MPEG4/ISO/AVC
Duration                    : 2 h 17 min
Bit rate mode               : Variable
Bit rate                    : 24.0 Mb/s
Maximum bit rate            : 37.0 Mb/s
Width                       : 1 920 pixels
Height                      : 1 080 pixels
Display aspect ratio        : 16:9
Frame rate mode             : Constant
Frame rate                  : 23.976 (24000/1001) FPS
Color space                 : YUV
Chroma subsampling          : 4:2:0
Bit depth                   : 8 bits
Scan type                   : Progressive
Bits/(Pixel*Frame)          : 0.482
Stream size                 : 23.0 GiB (97%)
Title                       : Valerian and the City of a Thousand Planets
Language                    : English
Default                     : Yes
Forced                      : No

Audio
ID                          : 2
Format                      : AC-3
Format/Info                 : Audio Coding 3
Format settings, Endianness : Big
Codec ID                    : A_AC3
Duration                    : 2 h 17 min
Bit rate mode               : Constant
Bit rate                    : 640 kb/s
Channel(s)                  : 6 channels
Channel positions           : Front: L C R, Side: L R, LFE
Sampling rate               : 48.0 kHz
Frame rate                  : 31.250 FPS (1536 spf)
Bit depth                   : 16 bits
Compression mode            : Lossy
Stream size                 : 627 MiB (3%)
Title                       : English
Language                    : English
Service kind                : Complete Main
Default                     : Yes
Forced                      : No

Text #1
ID                          : 3
Format                      : PGS
Muxing mode                 : zlib
Codec ID                    : S_HDMV/PGS
Codec ID/Info               : Picture based subtitle format used on BDs/HD-DVDs
Duration                    : 2 h 13 min
Bit rate                    : 44.1 kb/s
Count of elements           : 3827
Stream size                 : 42.1 MiB (0%)
Title                       : English SDH
Language                    : English
Default                     : No
Forced                      : No

Text #2
ID                          : 4
Format                      : PGS
Muxing mode                 : zlib
Codec ID                    : S_HDMV/PGS
Codec ID/Info               : Picture based subtitle format used on BDs/HD-DVDs
Duration                    : 2 h 5 min
Bit rate                    : 27.2 kb/s
Count of elements           : 2950
Stream size                 : 24.4 MiB (0%)
Title                       : Turkish
Language                    : Turkish
Default                     : Yes
Forced                      : No

[Image: 40866930753_deef4fe5fd_b.jpg]

[Image: 40866932143_3d70f78089_b.jpg]

[Image: tdown.png]

For Only Vip Members

Valerian and the City of a Thousand Planets (2017) Bluray Remux 1080p AVC DD 5.1 VIP
Reply


Possibly Related Threads…
Thread Author Replies Views Last Post
  Fabricated City 2017 1080p BluRay REMUX AVC TrueHD 5 1-SAiKo KAiJu 0 37 04-22-2022, 07:21 AM
Last Post: KAiJu
  City on Fire 1987 1080p BluRay REMUX AVC TrueHD 7 1-TRiToN KAiJu 0 41 04-04-2022, 06:46 AM
Last Post: KAiJu
  City of Ghosts 2002 1080p Blu-ray Remux AVC DTS-HD MA 5.1-HDT KAiJu 0 57 02-07-2022, 10:15 AM
Last Post: KAiJu
  Resident Evil Welcome to Raccoon City 2021 1080p BluRay REMUX AVC DTS-HD MA 5.1-PiRaT KAiJu 0 98 02-02-2022, 03:26 PM
Last Post: KAiJu
  Broken City 2013 1080p USA Blu-ray Remux AVC DTS-HD MA 5.1 - KraLiMaRKo KAiJu 0 64 01-19-2022, 02:30 PM
Last Post: KAiJu

Forum Jump:


Users browsing this thread: 1 Guest(s)

Powered By MyBB
RSS RSS Syndication
Updated By iAndrew | 2022