Thread Rating:
  • 0 Vote(s) - 0 Average
  • 1
  • 2
  • 3
  • 4
  • 5

[-]
Tags
bluray avc 1080p 2017 hd ma 1 remux unlocked dts 5

  Unlocked (2017) Bluray Remux 1080p AVC DTS-HD MA 5.1
#1
Unlocked (2017) Bluray Remux 1080p AVC DTS-HD MA 5.1

[Image: tt1734493.jpg]

[Image: imdb.png]
https://www.imdb.com/title/tt1734493/

[Image: info.png]
Unlocked 2017 EN.mkv
Format                      : Matroska
Format version              : Version 4 / Version 2
File size                   : 24.5 GiB
Duration                    : 1 h 38 min
Overall bit rate mode       : Variable
Overall bit rate            : 35.6 Mb/s
Movie name                  : Unlocked
Encoded date                : UTC 2017-09-06 13:42:34
Writing application         : mkvmerge v15.0.0 ('Duel with the Devil') 64-bit
Writing library             : libebml v1.3.5 + libmatroska v1.4.5

Video
ID                          : 1
Format                      : AVC
Format/Info                 : Advanced Video Codec
Format profile              : [email protected]
Format settings             : CABAC / 3 Ref Frames
Format settings, CABAC      : Yes
Format settings, ReFrames   : 3 frames
Codec ID                    : V_MPEG4/ISO/AVC
Duration                    : 1 h 38 min
Bit rate mode               : Variable
Bit rate                    : 31.9 Mb/s
Maximum bit rate            : 34.0 Mb/s
Width                       : 1 920 pixels
Height                      : 1 080 pixels
Display aspect ratio        : 16:9
Frame rate mode             : Constant
Frame rate                  : 24.000 FPS
Standard                    : NTSC
Color space                 : YUV
Chroma subsampling          : 4:2:0
Bit depth                   : 8 bits
Scan type                   : Progressive
Bits/(Pixel*Frame)          : 0.641
Stream size                 : 21.9 GiB (90%)
Title                       : Unlocked
Language                    : English
Default                     : Yes
Forced                      : No
Color range                 : Limited
Color primaries             : BT.709
Transfer characteristics    : BT.709
Matrix coefficients         : BT.709

Audio
ID                          : 2
Format                      : DTS
Format/Info                 : Digital Theater Systems
Format profile              : MA / Core
Codec ID                    : A_DTS
Duration                    : 1 h 38 min
Bit rate mode               : Variable / Constant
Bit rate                    : 3 682 kb/s / 768 kb/s
Channel(s)                  : 6 channels
Channel positions           : Front: L C R, Side: L R, LFE
Sampling rate               : 48.0 kHz
Frame rate                  : 93.750 FPS (512 SPF)
Bit depth                   : 24 bits
Compression mode            : Lossless / Lossy
Stream size                 : 2.53 GiB (10%)
Title                       : English
Language                    : English
Default                     : Yes
Forced                      : No

Text #1
ID                          : 3
Format                      : PGS
Muxing mode                 : zlib
Codec ID                    : S_HDMV/PGS
Codec ID/Info               : Picture based subtitle format used on BDs/HD-DVDs
Duration                    : 1 h 30 min
Bit rate                    : 38.1 kb/s
Count of elements           : 2388
Stream size                 : 24.7 MiB (0%)
Title                       : English
Language                    : English
Default                     : No
Forced                      : No

Text #2
ID                          : 4
Format                      : PGS
Muxing mode                 : zlib
Codec ID                    : S_HDMV/PGS
Codec ID/Info               : Picture based subtitle format used on BDs/HD-DVDs
Duration                    : 1 h 30 min
Bit rate                    : 28.5 kb/s
Count of elements           : 2180
Stream size                 : 18.4 MiB (0%)
Title                       : Turkish
Language                    : Turkish
Default                     : Yes
Forced                      : No

[Image: vlcsnap-error283-jpg-b45fb51204430e3a2eb...0a9e48.jpg]

[Image: vlcsnap-error501-jpg-cb2ebed79ea6980993b...aa93e4.jpg]

[Image: tdown.png]

For Only Vip Members

Unlocked (2017) Bluray Remux 1080p AVC DTS-HD MA 5.1 VIP
Reply


Forum Jump:


Users browsing this thread: 1 Guest(s)

Powered By MyBB
Theme By Audentio Design
Updated By iAndrew | 2018