Thread Rating:
  • 0 Vote(s) - 0 Average
  • 1
  • 2
  • 3
  • 4
  • 5

[-]
Tags
universal bluray avc regeneration 1080p hd soldier ma 1 remux 2010 dts 5

  Universal Soldier Regeneration (2010) Bluray Remux 1080p AVC DTS-HD MA 5.1
#1
Universal Soldier Regeneration (2010) Bluray Remux 1080p AVC DTS-HD MA 5.1

[Image: tt1288403.jpg]

[Image: imdb.png]
https://www.imdb.com/title/tt1288403/

[Image: info.png]
Universal Soldier Regeneration 2010 EN.mkv
Format                      : Matroska
Format version              : Version 4 / Version 2
File size                   : 17.7 GiB
Duration                    : 1 h 37 min
Overall bit rate mode       : Variable
Overall bit rate            : 26.2 Mb/s
Movie name                  : Universal Soldier: Regeneration
Encoded date                : UTC 2016-10-29 01:47:34
Writing application         : mkvmerge v9.5.0 ('Quiet Fire') 64bit
Writing library             : libebml v1.3.4 + libmatroska v1.4.5

Video
ID                          : 1
Format                      : AVC
Format/Info                 : Advanced Video Codec
Format profile              : [email protected]
Format settings, CABAC      : Yes
Format settings, ReFrames   : 4 frames
Format settings, GOP        : M=3, N=24
Codec ID                    : V_MPEG4/ISO/AVC
Duration                    : 1 h 37 min
Bit rate mode               : Variable
Bit rate                    : 23.9 Mb/s
Maximum bit rate            : 33.0 Mb/s
Width                       : 1 920 pixels
Height                      : 1 080 pixels
Display aspect ratio        : 16:9
Frame rate mode             : Constant
Frame rate                  : 23.976 (24000/1001) FPS
Standard                    : NTSC
Color space                 : YUV
Chroma subsampling          : 4:2:0
Bit depth                   : 8 bits
Scan type                   : Progressive
Bits/(Pixel*Frame)          : 0.480
Stream size                 : 16.2 GiB (91%)
Title                       : Universal Soldier: Regeneration
Language                    : English
Default                     : Yes
Forced                      : No
Color range                 : Limited
Color primaries             : BT.709
Transfer characteristics    : BT.709
Matrix coefficients         : BT.709

Audio
ID                          : 2
Format                      : DTS
Format/Info                 : Digital Theater Systems
Format profile              : MA / Core
Mode                        : 16
Format settings, Endianness : Big
Codec ID                    : A_DTS
Duration                    : 1 h 36 min
Bit rate mode               : Variable / Constant
Bit rate                    : 2 270 kb/s / 1 509 kb/s
Channel(s)                  : 6 channels
Channel positions           : Front: L C R, Side: L R, LFE
Sampling rate               : 48.0 kHz
Frame rate                  : 93.750 FPS (512 spf)
Bit depth                   : 16 bits
Compression mode            : Lossless / Lossy
Stream size                 : 1.54 GiB (9%)
Title                       : English
Language                    : English
Default                     : Yes
Forced                      : No

Text
ID                          : 3
Format                      : PGS
Muxing mode                 : zlib
Codec ID                    : S_HDMV/PGS
Codec ID/Info               : Picture based subtitle format used on BDs/HD-DVDs
Duration                    : 1 h 18 min
Bit rate                    : 9 766 b/s
Count of elements           : 1122
Stream size                 : 5.48 MiB (0%)
Title                       : Turkish
Language                    : Turkish
Default                     : Yes
Forced                      : No

[Image: 47043930614_c27ff3ed02_b.jpg]

[Image: 47043931894_167259ca91_b.jpg]

[Image: tdown.png]

For Only Vip Members

Universal Soldier Regeneration (2010) Bluray Remux 1080p AVC DTS-HD MA 5.1 VIP
Reply


Possibly Related Threads…
Thread Author Replies Views Last Post
  Never Let Me Go (2010) Bluray Remux 1080p AVC DTS-HD MA 5.1 admin 0 941 06-03-2019, 02:09 PM
Last Post: admin
  Universal Soldier Day of Reckoning (20129 Bluray Remux 1080p TR-EN AVC DTS-HD MA 5.1 admin 0 935 05-08-2019, 06:07 PM
Last Post: admin
  Unknown Soldier (2018) S01 COMPLETE 1080p BluRay REMUX AVC Atmos-EPSiLON admin 0 1,589 04-07-2019, 09:08 PM
Last Post: admin

Forum Jump:


Users browsing this thread: 1 Guest(s)

Powered By MyBB
Theme By Audentio Design
Updated By iAndrew | 2018