Thread Rating:
  • 0 Vote(s) - 0 Average
  • 1
  • 2
  • 3
  • 4
  • 5

[-]
Tags
universal bluray reckoning day avc 1080p of en 20129 hd soldier ma 1 remux dts 5 tr

  Universal Soldier Day of Reckoning (20129 Bluray Remux 1080p TR-EN AVC DTS-HD MA 5.1
#1
Universal Soldier Day of Reckoning (2012) Bluray Remux 1080p TR-EN AVC DTS-HD MA 5.1

[Image: tt1659343.jpg]

[Image: imdb.png]
https://www.imdb.com/title/tt1659343/

[Image: info.png]
Universal Soldier Day of Reckoning 2012 TR EN.mkv
Format                      : Matroska
Format version              : Version 4 / Version 2
File size                   : 16.4 GiB
Duration                    : 1 h 53 min
Overall bit rate mode       : Variable
Overall bit rate            : 20.6 Mb/s
Encoded date                : UTC 2014-08-01 00:41:30
Writing application         : mkvmerge v7.1.0 ('Good Love') 64bit built on Jul 27 2014 13:06:55
Writing library             : libebml v1.3.0 + libmatroska v1.4.1

Video
ID                          : 1
Format                      : AVC
Format/Info                 : Advanced Video Codec
Format profile              : [email protected]
Format settings, CABAC      : Yes
Format settings, ReFrames   : 4 frames
Codec ID                    : V_MPEG4/ISO/AVC
Duration                    : 1 h 53 min
Bit rate mode               : Variable
Bit rate                    : 15.9 Mb/s
Maximum bit rate            : 30.0 Mb/s
Width                       : 1 920 pixels
Height                      : 1 080 pixels
Display aspect ratio        : 16:9
Frame rate mode             : Constant
Frame rate                  : 23.976 (24000/1001) FPS
Standard                    : NTSC
Color space                 : YUV
Chroma subsampling          : 4:2:0
Bit depth                   : 8 bits
Scan type                   : Progressive
Bits/(Pixel*Frame)          : 0.320
Stream size                 : 12.6 GiB (77%)
Title                       : Universal Soldier Day of Reckoning
Language                    : English
Default                     : Yes
Forced                      : No
Color range                 : Limited
Color primaries             : BT.709
Transfer characteristics    : BT.709
Matrix coefficients         : BT.709

Audio #1
ID                          : 2
Format                      : DTS
Format/Info                 : Digital Theater Systems
Format profile              : MA / Core
Mode                        : 16
Format settings, Endianness : Big
Codec ID                    : A_DTS
Duration                    : 1 h 53 min
Bit rate mode               : Variable / Constant
Bit rate                    : 2 257 kb/s / 1 509 kb/s
Channel(s)                  : 6 channels
Channel positions           : Front: L C R, Side: L R, LFE
Sampling rate               : 48.0 kHz
Frame rate                  : 93.750 FPS (512 spf)
Bit depth                   : 16 bits
Compression mode            : Lossless / Lossy
Stream size                 : 1.79 GiB (11%)
Title                       : Turkish
Language                    : Turkish
Default                     : No
Forced                      : No

Audio #2
ID                          : 3
Format                      : DTS
Format/Info                 : Digital Theater Systems
Format profile              : MA / Core
Mode                        : 16
Format settings, Endianness : Big
Codec ID                    : A_DTS
Duration                    : 1 h 53 min
Bit rate mode               : Variable / Constant
Bit rate                    : 2 417 kb/s / 1 509 kb/s
Channel(s)                  : 6 channels
Channel positions           : Front: L C R, Side: L R, LFE
Sampling rate               : 48.0 kHz
Frame rate                  : 93.750 FPS (512 spf)
Bit depth                   : 16 bits
Compression mode            : Lossless / Lossy
Stream size                 : 1.92 GiB (12%)
Title                       : English
Language                    : English
Default                     : Yes
Forced                      : No

Text #1
ID                          : 4
Format                      : PGS
Muxing mode                 : zlib
Codec ID                    : S_HDMV/PGS
Codec ID/Info               : Picture based subtitle format used on BDs/HD-DVDs
Duration                    : 1 h 44 min
Bit rate                    : 6 557 b/s
Count of elements           : 957
Stream size                 : 4.89 MiB (0%)
Title                       : Turkish
Language                    : Turkish
Default                     : Yes
Forced                      : No

Text #2
ID                          : 5
Format                      : PGS
Muxing mode                 : zlib
Codec ID                    : S_HDMV/PGS
Codec ID/Info               : Picture based subtitle format used on BDs/HD-DVDs
Duration                    : 1 h 44 min
Bit rate                    : 6 948 b/s
Count of elements           : 997
Stream size                 : 5.19 MiB (0%)
Title                       : English
Language                    : English
Default                     : No
Forced                      : No

[Image: vlcsnap-error266-jpg-f65dc078f67785d06c3...69c86d.jpg]

[Image: vlcsnap-error900-jpg-b1eeea688e7a0d5bceb...98b53e.jpg]

[Image: tdown.png]

For Only Vip Members

Universal Soldier Day of Reckoning (20129 Bluray Remux 1080p TR-EN AVC DTS-HD MA 5.1 VIP
Reply


Possibly Related Threads…
Thread Author Replies Views Last Post
  Universal Soldier Regeneration (2010) Bluray Remux 1080p AVC DTS-HD MA 5.1 admin 0 820 05-12-2019, 04:45 PM
Last Post: admin
  Unknown Soldier (2018) S01 COMPLETE 1080p BluRay REMUX AVC Atmos-EPSiLON admin 0 1,597 04-07-2019, 09:08 PM
Last Post: admin

Forum Jump:


Users browsing this thread: 1 Guest(s)

Powered By MyBB
Theme By Audentio Design
Updated By iAndrew | 2018