Thread Rating:
  • 0 Vote(s) - 0 Average
  • 1
  • 2
  • 3
  • 4
  • 5

[-]
Tags
bluray 2002 avc 1080p 2017 movie hd ma 1 remux dts collection undisputed 5

  Undisputed Movie Collection (2002-2017) Bluray Remux 1080p AVC DTS-HD MA 5.1
#1
Undisputed Movie Collection (2002-2017) Bluray Remux 1080p AVC DTS-HD MA 5.1

[Image: tt02813221.jpg]

[Image: imdb.png]
https://www.imdb.com/title/tt0281322/
https://www.imdb.com/title/tt0443676/
https://www.imdb.com/title/tt1156466/
https://www.imdb.com/title/tt3344680/

[Image: info.png]
Undisputed 2002 EN.mkv
Format                      : Matroska
Format version              : Version 4 / Version 2
File size                   : 14.6 GiB
Duration                    : 1 h 33 min
Overall bit rate mode       : Variable
Overall bit rate            : 22.3 Mb/s
Movie name                  : Undisputed
Encoded date                : UTC 2016-12-14 12:24:56
Writing application         : mkvmerge v9.6.0 ('Slave To Your Mind') 64bit
Writing library             : libebml v1.3.4 + libmatroska v1.4.5

Video
ID                          : 1
Format                      : AVC
Format/Info                 : Advanced Video Codec
Format profile              : [email protected]
Format settings, CABAC      : Yes
Format settings, ReFrames   : 4 frames
Codec ID                    : V_MPEG4/ISO/AVC
Duration                    : 1 h 33 min
Bit rate mode               : Variable
Bit rate                    : 21.8 Mb/s
Maximum bit rate            : 28.0 Mb/s
Width                       : 1 920 pixels
Height                      : 1 080 pixels
Display aspect ratio        : 16:9
Frame rate mode             : Constant
Frame rate                  : 23.976 (24000/1001) FPS
Standard                    : NTSC
Color space                 : YUV
Chroma subsampling          : 4:2:0
Bit depth                   : 8 bits
Scan type                   : Progressive
Bits/(Pixel*Frame)          : 0.438
Stream size                 : 14.2 GiB (98%)
Title                       : Undisputed
Language                    : English
Default                     : Yes
Forced                      : No
Color range                 : Limited
Color primaries             : BT.709
Transfer characteristics    : BT.709
Matrix coefficients         : BT.709

Audio
ID                          : 2
Format                      : AC-3
Format/Info                 : Audio Coding 3
Format settings, Endianness : Big
Codec ID                    : A_AC3
Duration                    : 1 h 33 min
Bit rate mode               : Constant
Bit rate                    : 448 kb/s
Channel(s)                  : 6 channels
Channel positions           : Front: L C R, Side: L R, LFE
Sampling rate               : 48.0 kHz
Frame rate                  : 31.250 FPS (1536 spf)
Bit depth                   : 16 bits
Compression mode            : Lossy
Stream size                 : 300 MiB (2%)
Title                       : English
Language                    : English
Service kind                : Complete Main
Default                     : Yes
Forced                      : No

Text #1
ID                          : 3
Format                      : UTF-8
Codec ID                    : S_TEXT/UTF8
Codec ID/Info               : UTF-8 Plain Text
Duration                    : 1 h 29 min
Bit rate                    : 84 b/s
Count of elements           : 1689
Stream size                 : 55.6 KiB (0%)
Title                       : full
Language                    : English
Default                     : No
Forced                      : No

Text #2
ID                          : 4
Format                      : PGS
Muxing mode                 : zlib
Codec ID                    : S_HDMV/PGS
Codec ID/Info               : Picture based subtitle format used on BDs/HD-DVDs
Duration                    : 1 h 26 min
Bit rate                    : 17.4 kb/s
Count of elements           : 2262
Stream size                 : 10.7 MiB (0%)
Title                       : Turkish
Language                    : Turkish
Default                     : Yes
Forced                      : No

[Image: 47789340252_986fb85e3d_b.jpg]

[Image: 33964081198_27ece968f2_b.jpg]

[Image: tdown.png]

For Only Vip Members

Undisputed Movie Collection (2002-2017) Bluray Remux 1080p AVC DTS-HD MA 5.1 VIP
Reply


Possibly Related Threads…
Thread Author Replies Views Last Post
  Undercover Brother (2002) Bluray Remux 1080p AVC DTS-HD MA 5.1 admin 0 113 08-24-2019, 12:44 PM
Last Post: admin
  Naked Weapon (2002) Bluray Remux 1080p AVC TrueHD 7.1 admin 0 44 08-23-2019, 09:21 AM
Last Post: admin
  The Ring 1-2-3 (2002-2017) Bluray Remux 1080p AVC DTS 5.1 admin 0 63 08-22-2019, 07:30 PM
Last Post: admin
  28 Days Later (2002) Bluray Remux 1080p TR EN AVC DTS-HD MA 5.1 admin 0 62 08-18-2019, 05:38 PM
Last Post: admin
  Solaris (2002) Bluray Remux 1080p AVC DTS-HD MA 5.1 admin 0 98 07-18-2019, 04:46 PM
Last Post: admin

Forum Jump:


Users browsing this thread: 1 Guest(s)

Powered By MyBB
Theme By Audentio Design
Updated By iAndrew | 2018