Thread Rating:
  • 0 Vote(s) - 0 Average
  • 1
  • 2
  • 3
  • 4
  • 5

[-]
Tags
maymun bluray 1080p hd ma 1 vc remux uc dts 5 2008

 
  Uc Maymun (2008) Bluray Remux 1080p VC-1 DTS-HD MA 5.1
#1
Uc Maymun (2008) Bluray Remux 1080p VC-1 DTS-HD MA 5.1

[Image: tt1233381.jpg]

[Image: imdb.png]
https://www.imdb.com/title/tt1233381/

[Image: info.png]
Uc Maymun 2008 TR.mkv
Format                      : Matroska
Format version              : Version 4 / Version 2
File size                   : 18.7 GiB
Duration                    : 1 h 48 min
Overall bit rate            : 24.6 Mb/s
Movie name                  : Three Monkeys
Encoded date                : UTC 2015-11-26 14:56:07
Writing application         : mkvmerge v8.3.0 ('Over the Horizon') 64bit
Writing library             : libebml v1.3.1 + libmatroska v1.4.2

Video
ID                          : 1
Format                      : VC-1
Format profile              : [email protected]
Codec ID                    : V_MS/VFW/FOURCC / WVC1
Codec ID/Hint               : Microsoft
Duration                    : 1 h 48 min
Bit rate                    : 22.0 Mb/s
Width                       : 1 920 pixels
Height                      : 1 080 pixels
Display aspect ratio        : 16:9
Frame rate mode             : Constant
Frame rate                  : 24.000 FPS
Color space                 : YUV
Chroma subsampling          : 4:2:0
Bit depth                   : 8 bits
Scan type                   : Progressive
Compression mode            : Lossy
Bits/(Pixel*Frame)          : 0.442
Stream size                 : 16.7 GiB (89%)
Title                       : Three Monkeys
Language                    : Turkish
Default                     : Yes
Forced                      : No

Audio #1
ID                          : 2
Format                      : DTS
Format/Info                 : Digital Theater Systems
Format profile              : MA / Core
Mode                        : 16
Format settings, Endianness : Big
Codec ID                    : A_DTS
Duration                    : 1 h 48 min
Bit rate mode               : Variable / Constant
Bit rate                    : 1 670 kb/s / 1 509 kb/s
Channel(s)                  : 6 channels
Channel positions           : Front: L C R, Side: L R, LFE
Sampling rate               : 48.0 kHz
Frame rate                  : 93.750 FPS (512 spf)
Bit depth                   : 16 bits
Compression mode            : Lossless / Lossy
Stream size                 : 1.27 GiB (7%)
Title                       : Turkish
Language                    : Turkish
Default                     : Yes
Forced                      : No

Audio #2
ID                          : 3
Format                      : DTS
Format/Info                 : Digital Theater Systems
Format profile              : MA / Core
Mode                        : 16
Format settings, Endianness : Big
Codec ID                    : A_DTS
Duration                    : 1 h 48 min
Bit rate mode               : Variable / Constant
Bit rate                    : 897 kb/s / 768 kb/s
Channel(s)                  : 2 channels
Channel positions           : Front: L R
Sampling rate               : 48.0 kHz
Frame rate                  : 93.750 FPS (512 spf)
Bit depth                   : 16 bits
Compression mode            : Lossless / Lossy
Stream size                 : 699 MiB (4%)
Title                       : Turkish 2.0
Language                    : Turkish
Default                     : No
Forced                      : No

Text #1
ID                          : 4
Format                      : PGS
Muxing mode                 : zlib
Codec ID                    : S_HDMV/PGS
Codec ID/Info               : Picture based subtitle format used on BDs/HD-DVDs
Duration                    : 1 h 40 min
Bit rate                    : 3 630 b/s
Count of elements           : 966
Stream size                 : 2.61 MiB (0%)
Title                       : Enhlish
Language                    : English
Default                     : No
Forced                      : No

Text #2
ID                          : 5
Format                      : PGS
Muxing mode                 : zlib
Codec ID                    : S_HDMV/PGS
Codec ID/Info               : Picture based subtitle format used on BDs/HD-DVDs
Duration                    : 1 h 40 min
Bit rate                    : 3 319 b/s
Count of elements           : 964
Stream size                 : 2.38 MiB (0%)
Title                       : French
Language                    : French
Default                     : No
Forced                      : No

Text #3
ID                          : 6
Format                      : PGS
Muxing mode                 : zlib
Codec ID                    : S_HDMV/PGS
Codec ID/Info               : Picture based subtitle format used on BDs/HD-DVDs
Duration                    : 1 h 44 min
Bit rate                    : 4 631 b/s
Count of elements           : 1336
Stream size                 : 3.45 MiB (0%)
Title                       : Turkish
Language                    : Turkish
Default                     : No
Forced                      : No

[Image: vlcsnap-error046-jpg-735632d0b7defe88b03...e77fa2.jpg]

[Image: vlcsnap-error637-jpg-610d7852f7d3c6a2cb4...f63d53.jpg]

[Image: tdown.png]

For Only Vip Members

Uc Maymun (2008) Bluray Remux 1080p VC-1 DTS-HD MA 5.1 VIP
Reply


Forum Jump:


Users browsing this thread: 1 Guest(s)

Powered By MyBB
RSS RSS Syndication
Updated By iAndrew | 2021