Thread Rating:
  • 0 Vote(s) - 0 Average
  • 1
  • 2
  • 3
  • 4
  • 5

[-]
Tags
fire with bluray walk avc 1080p peaks 7 me hd ma 1 remux 1992 dts twin

 
  Twin Peaks Fire Walk with Me (1992) Bluray Remux 1080p AVC DTS-HD MA 7.1
#1
Twin Peaks Fire Walk with Me (1992) Bluray Remux 1080p AVC DTS-HD MA 7.1

[Image: tt0105665.jpg]

[Image: imdb.png]
https://www.imdb.com/title/tt0105665/

[Image: info.png]
Twin Peaks Fire Walk with Me 1992 EN.mkv
Format                      : Matroska
Format version              : Version 4 / Version 2
File size                   : 30.0 GiB
Duration                    : 2 h 15 min
Overall bit rate mode       : Variable
Overall bit rate            : 31.8 Mb/s
Movie name                  : Twin Peaks: Fire Walk with Me
Encoded date                : UTC 2017-10-24 19:08:09
Writing application         : mkvmerge v17.0.0 ('Be Ur Friend') 64-bit
Writing library             : libebml v1.3.5 + libmatroska v1.4.8

Video
ID                          : 1
Format                      : AVC
Format/Info                 : Advanced Video Codec
Format profile              : [email protected]
Format settings             : CABAC / 4 Ref Frames
Format settings, CABAC      : Yes
Format settings, ReFrames   : 4 frames
Codec ID                    : V_MPEG4/ISO/AVC
Duration                    : 2 h 15 min
Bit rate mode               : Variable
Bit rate                    : 27.9 Mb/s
Maximum bit rate            : 37.0 Mb/s
Width                       : 1 920 pixels
Height                      : 1 080 pixels
Display aspect ratio        : 16:9
Frame rate mode             : Constant
Frame rate                  : 23.976 (24000/1001) FPS
Color space                 : YUV
Chroma subsampling          : 4:2:0
Bit depth                   : 8 bits
Scan type                   : Progressive
Bits/(Pixel*Frame)          : 0.560
Stream size                 : 26.3 GiB (88%)
Title                       : Twin Peaks: Fire Walk with Me
Language                    : English
Default                     : Yes
Forced                      : No

Audio
ID                          : 2
Format                      : DTS
Format/Info                 : Digital Theater Systems
Format profile              : MA / Core
Codec ID                    : A_DTS
Duration                    : 2 h 15 min
Bit rate mode               : Variable / Constant
Bit rate                    : 3 919 kb/s / 1 509 kb/s
Channel(s)                  : 8 channels / 6 channels
Channel positions           : Front: L C R, Side: L R, Back: L R, LFE / Front: L C R, Side: L R, LFE
Sampling rate               : 48.0 kHz
Frame rate                  : 93.750 FPS (512 SPF)
Bit depth                   : 24 bits
Compression mode            : Lossless / Lossy
Stream size                 : 3.70 GiB (12%)
Title                       : English
Language                    : English
Default                     : Yes
Forced                      : No

Text #1
ID                          : 3
Format                      : PGS
Muxing mode                 : zlib
Codec ID                    : S_HDMV/PGS
Codec ID/Info               : Picture based subtitle format used on BDs/HD-DVDs
Duration                    : 2 h 11 min
Bit rate                    : 25.9 kb/s
Count of elements           : 2302
Stream size                 : 24.4 MiB (0%)
Title                       : English
Language                    : English
Default                     : No
Forced                      : No

Text #2
ID                          : 4
Format                      : PGS
Muxing mode                 : zlib
Codec ID                    : S_HDMV/PGS
Codec ID/Info               : Picture based subtitle format used on BDs/HD-DVDs
Duration                    : 2 h 4 min
Bit rate                    : 13.4 kb/s
Count of elements           : 1822
Stream size                 : 12.0 MiB (0%)
Title                       : Turkish
Language                    : Turkish
Default                     : Yes
Forced                      : No

[Image: 47078158084_ec5d27f6c8_b.jpg]

[Image: 47815398202_b892671ec9_b.jpg]

[Image: tdown.png]

For Only Vip Members

Twin Peaks Fire Walk with Me (1992) Bluray Remux 1080p AVC DTS-HD MA 7.1 VIP
Reply


Possibly Related Threads…
Thread Author Replies Views Last Post
  Far And Away (1992) Bluray REMUX 1080p AVC DTS-HD MA 5.1-HUS AbrA 0 16 07-22-2021, 05:48 PM
Last Post: AbrA
  El Mariachi And Desperado (1992-1995) 2in1 Bluray REMUX 1080p AVC DTS-HD MA 5.1-HUS AbrA 0 26 07-19-2021, 04:40 PM
Last Post: AbrA
  Buffy the Vampire Slayer (1992) Bluray REMUX 1080p AVC DTS-HD MA 7.1-HUS AbrA 0 42 05-22-2021, 06:52 PM
Last Post: AbrA
  Once Upon a Crime 1992 1080p Blu-ray Remux AVC DTS-HD MA 2.0 - KRaLiMaRKo KAiJu 0 212 03-22-2021, 10:30 AM
Last Post: KAiJu
  The Long Day Closes 1992 Criterion Collection 1080p Blu-ray Remux AVC FLAC 2.0 - KRaL KAiJu 0 285 02-14-2021, 01:51 PM
Last Post: KAiJu

Forum Jump:


Users browsing this thread: 1 Guest(s)

Powered By MyBB
RSS RSS Syndication
Updated By iAndrew | 2021