Thread Rating:
  • 0 Vote(s) - 0 Average
  • 1
  • 2
  • 3
  • 4
  • 5

[-]
Tags
bluray transsiberian 1080p en hd ma 1 vc remux dts 5 tr 2008

 
  Transsiberian (2008) Bluray Remux 1080p TR-EN VC-1 DTS-HD MA 5.1
#1
Transsiberian (2008) Bluray Remux 1080p TR-EN VC-1 DTS-HD MA 5.1

[Image: tt0800241.jpg]

[Image: imdb.png]
https://www.imdb.com/title/tt0800241/

[Image: info.png]
Transsiberian 2008 TR EN.mkv
Format                      : Matroska
Format version              : Version 4 / Version 2
File size                   : 18.5 GiB
Duration                    : 1 h 51 min
Overall bit rate            : 23.9 Mb/s
Encoded date                : UTC 2014-06-12 23:12:33
Writing application         : mkvmerge v7.0.0 ('Where We Going') 64bit built on Jun  9 2014 15:16:27
Writing library             : libebml v1.3.0 + libmatroska v1.4.1

Video
ID                          : 1
Format                      : VC-1
Format profile              : [email protected]
Codec ID                    : V_MS/VFW/FOURCC / WVC1
Codec ID/Hint               : Microsoft
Duration                    : 1 h 51 min
Bit rate                    : 19.9 Mb/s
Width                       : 1 920 pixels
Height                      : 1 080 pixels
Display aspect ratio        : 16:9
Frame rate mode             : Constant
Frame rate                  : 23.976 (24000/1001) FPS
Color space                 : YUV
Chroma subsampling          : 4:2:0
Bit depth                   : 8 bits
Scan type                   : Progressive
Compression mode            : Lossy
Bits/(Pixel*Frame)          : 0.401
Stream size                 : 15.5 GiB (84%)
Title                       : Transsiberian
Language                    : English
Default                     : Yes
Forced                      : No

Audio #1
ID                          : 2
Format                      : DTS
Format/Info                 : Digital Theater Systems
Format profile              : MA / Core
Mode                        : 16
Format settings, Endianness : Big
Codec ID                    : A_DTS
Duration                    : 1 h 51 min
Bit rate mode               : Variable / Constant
Bit rate                    : 1 981 kb/s / 1 509 kb/s
Channel(s)                  : 6 channels
Channel positions           : Front: L C R, Side: L R, LFE
Sampling rate               : 48.0 kHz
Frame rate                  : 93.750 FPS (512 spf)
Bit depth                   : 16 bits
Compression mode            : Lossless / Lossy
Stream size                 : 1.54 GiB (8%)
Title                       : Turkish
Language                    : Turkish
Default                     : No
Forced                      : No

Audio #2
ID                          : 3
Format                      : DTS
Format/Info                 : Digital Theater Systems
Format profile              : MA / Core
Mode                        : 16
Format settings, Endianness : Big
Codec ID                    : A_DTS
Duration                    : 1 h 51 min
Bit rate mode               : Variable / Constant
Bit rate                    : 1 920 kb/s / 1 509 kb/s
Channel(s)                  : 6 channels
Channel positions           : Front: L C R, Side: L R, LFE
Sampling rate               : 48.0 kHz
Frame rate                  : 93.750 FPS (512 spf)
Bit depth                   : 16 bits
Compression mode            : Lossless / Lossy
Stream size                 : 1.49 GiB (8%)
Title                       : English
Language                    : English
Default                     : Yes
Forced                      : No

Text
ID                          : 4
Format                      : PGS
Muxing mode                 : zlib
Codec ID                    : S_HDMV/PGS
Codec ID/Info               : Picture based subtitle format used on BDs/HD-DVDs
Duration                    : 1 h 43 min
Bit rate                    : 14.7 kb/s
Count of elements           : 2467
Stream size                 : 10.9 MiB (0%)
Title                       : Turkish
Language                    : Turkish
Default                     : Yes
Forced                      : No

[Image: vlcsnap-error108-jpg-59a0867ec20c368425e...22d4c4.jpg]

[Image: vlcsnap-error387-jpg-a145e72d7c1cb8ebe27...f16b56.jpg]

[Image: tdown.png]

For Only Vip Members

Transsiberian (2008) Bluray Remux 1080p TR-EN VC-1 DTS-HD MA 5.1 VIP
Reply


Possibly Related Threads…
Thread Author Replies Views Last Post
  What Just Happened 2008 1080p Blu-ray Remux AVC DTS-HD MA 5.1-HDT KAiJu 0 47 10-06-2021, 06:33 AM
Last Post: KAiJu
  Mi-in-do 2008 1080p Blu-ray Remux AVC DTS-HD MA 5.1 - KRaLiMaRKo KAiJu 0 54 09-27-2021, 06:56 AM
Last Post: KAiJu
  Evet Ich Will (2008) Bluray REMUX 1080p AVC DTS-HD MA 7.1-HUS AbrA 0 77 07-20-2021, 10:16 AM
Last Post: AbrA
  Admiral (2008) Bluray REMUX 1080p AVC DTS-HD MA 5.1-HUS AbrA 0 109 05-04-2021, 01:18 PM
Last Post: AbrA
  Yes Man (2008) Bluray REMUX 1080p VC-1 TrueHD 5.1-HUS AbrA 0 91 04-28-2021, 08:35 PM
Last Post: AbrA

Forum Jump:


Users browsing this thread: 1 Guest(s)

Powered By MyBB
RSS RSS Syndication
Updated By iAndrew | 2021