Thread Rating:
  • 0 Vote(s) - 0 Average
  • 1
  • 2
  • 3
  • 4
  • 5

[-]
Tags
dd bluray transformers avc 1080p 2017 the last 1 remux 5 knight

  Transformers The Last Knight (2017) Bluray Remux 1080p AVC DD 5.1
#1
Transformers The Last Knight (2017) Bluray Remux 1080p AVC DD 5.1

[Image: the.last.knight.jpg]

[Image: imdb.png]
https://www.imdb.com/title/tt3371366/

[Image: info.png]
Transformers The Last Knight 2017 TR EN.mkv
Format                      : Matroska
Format version              : Version 4 / Version 2
File size                   : 31.3 GiB
Duration                    : 2 h 34 min
Overall bit rate mode       : Variable
Overall bit rate            : 28.9 Mb/s
Movie name                  : Transformers: The Last Knight
Encoded date                : UTC 2017-10-21 08:49:11
Writing application         : mkvmerge v17.0.0 ('Be Ur Friend') 64-bit
Writing library             : libebml v1.3.5 + libmatroska v1.4.8

Video
ID                          : 1
Format                      : AVC
Format/Info                 : Advanced Video Codec
Format profile              : [email protected]
Format settings, CABAC      : Yes
Format settings, ReFrames   : 4 frames
Codec ID                    : V_MPEG4/ISO/AVC
Duration                    : 2 h 34 min
Bit rate mode               : Variable
Bit rate                    : 27.6 Mb/s
Maximum bit rate            : 31.0 Mb/s
Width                       : 1 920 pixels
Height                      : 1 080 pixels
Display aspect ratio        : 16:9
Frame rate mode             : Constant
Frame rate                  : 23.976 (24000/1001) FPS
Color space                 : YUV
Chroma subsampling          : 4:2:0
Bit depth                   : 8 bits
Scan type                   : Progressive
Bits/(Pixel*Frame)          : 0.556
Stream size                 : 29.8 GiB (95%)
Title                       : Transformers: The Last Knight
Language                    : English
Default                     : Yes
Forced                      : No

Audio #1
ID                          : 2
Format                      : AC-3
Format/Info                 : Audio Coding 3
Format settings, Endianness : Big
Codec ID                    : A_AC3
Duration                    : 2 h 34 min
Bit rate mode               : Constant
Bit rate                    : 640 kb/s
Channel(s)                  : 6 channels
Channel positions           : Front: L C R, Side: L R, LFE
Sampling rate               : 48.0 kHz
Frame rate                  : 31.250 FPS (1536 spf)
Bit depth                   : 16 bits
Compression mode            : Lossy
Stream size                 : 708 MiB (2%)
Title                       : English
Language                    : English
Service kind                : Complete Main
Default                     : Yes
Forced                      : No

Audio #2
ID                          : 3
Format                      : AC-3
Format/Info                 : Audio Coding 3
Format settings, Endianness : Big
Codec ID                    : A_AC3
Duration                    : 2 h 34 min
Bit rate mode               : Constant
Bit rate                    : 640 kb/s
Channel(s)                  : 6 channels
Channel positions           : Front: L C R, Side: L R, LFE
Sampling rate               : 48.0 kHz
Frame rate                  : 31.250 FPS (1536 spf)
Bit depth                   : 16 bits
Compression mode            : Lossy
Stream size                 : 708 MiB (2%)
Title                       : Turkish
Language                    : Turkish
Service kind                : Complete Main
Default                     : No
Forced                      : No

Text #1
ID                          : 4
Format                      : PGS
Muxing mode                 : zlib
Codec ID                    : S_HDMV/PGS
Codec ID/Info               : Picture based subtitle format used on BDs/HD-DVDs
Duration                    : 2 h 24 min
Bit rate                    : 41.7 kb/s
Count of elements           : 4552
Stream size                 : 43.1 MiB (0%)
Title                       : English
Language                    : English
Default                     : No
Forced                      : No

Text #2
ID                          : 5
Format                      : PGS
Muxing mode                 : zlib
Codec ID                    : S_HDMV/PGS
Codec ID/Info               : Picture based subtitle format used on BDs/HD-DVDs
Duration                    : 2 h 34 min
Bit rate                    : 37.4 kb/s
Count of elements           : 4588
Stream size                 : 41.2 MiB (0%)
Title                       : Turkish
Language                    : Turkish
Default                     : Yes
Forced                      : No

[Image: vlcsnap-error143-jpg-e0599258351c4f7c124...5dc673.jpg]

[Image: vlcsnap-error216-jpg-cb855e6b10333abc587...378560.jpg]

[Image: tdown.png]

For Only Vip Members

Transformers The Last Knight (2017) Bluray Remux 1080p AVC DD 5.1 VIP
Reply


Possibly Related Threads…
Thread Author Replies Views Last Post
  The Dark Knight Trilogy (2005-2005-2012) Bluray REMUX 1080p VC-1 TrueHD 5.1 AbrA 0 351 08-06-2020, 07:46 PM
Last Post: AbrA

Forum Jump:


Users browsing this thread: 1 Guest(s)

Powered By MyBB
Theme By Audentio Design
Updated By iAndrew | 2018