Thread Rating:
  • 0 Vote(s) - 0 Average
  • 1
  • 2
  • 3
  • 4
  • 5

[-]
Tags
dd bluray 1966 drifter avc 1080p 1 remux tokyo

 
  Tokyo Drifter (1966) Bluray Remux 1080p AVC DD 1.0
#1
Tokyo Drifter (1966) Bluray Remux 1080p AVC DD 1.0

[Image: tt0061101.jpg]

[Image: imdb.png]
https://www.imdb.com/title/tt0061101/

[Image: info.png]
Tokyo Drifter aka Tôkyô Nagaremono 1966 JP.mkv
Format                      : Matroska
Format version              : Version 4 / Version 2
File size                   : 20.5 GiB
Duration                    : 1 h 22 min
Overall bit rate mode       : Variable
Overall bit rate            : 35.3 Mb/s
Movie name                  : Tokyo Drifter aka Tôkyô Nagaremono
Encoded date                : UTC 2017-09-17 07:24:56
Writing application         : mkvmerge v15.0.0 ('Duel with the Devil') 64-bit
Writing library             : libebml v1.3.5 + libmatroska v1.4.5

Video
ID                          : 1
Format                      : AVC
Format/Info                 : Advanced Video Codec
Format profile              : [email protected]
Format settings             : CABAC / 4 Ref Frames
Format settings, CABAC      : Yes
Format settings, ReFrames   : 4 frames
Codec ID                    : V_MPEG4/ISO/AVC
Duration                    : 1 h 22 min
Bit rate mode               : Variable
Bit rate                    : 34.9 Mb/s
Maximum bit rate            : 37.0 Mb/s
Width                       : 1 920 pixels
Height                      : 1 080 pixels
Display aspect ratio        : 16:9
Frame rate mode             : Constant
Frame rate                  : 23.976 (24000/1001) FPS
Color space                 : YUV
Chroma subsampling          : 4:2:0
Bit depth                   : 8 bits
Scan type                   : Progressive
Bits/(Pixel*Frame)          : 0.701
Stream size                 : 20.2 GiB (99%)
Title                       : Tokyo Drifter aka Tôkyô Nagaremono
Language                    : Japanese
Default                     : Yes
Forced                      : No

Audio
ID                          : 2
Format                      : AC-3
Format/Info                 : Audio Coding 3
Codec ID                    : A_AC3
Duration                    : 1 h 22 min
Bit rate mode               : Constant
Bit rate                    : 448 kb/s
Channel(s)                  : 1 channel
Channel positions           : Front: C
Sampling rate               : 48.0 kHz
Frame rate                  : 31.250 FPS (1536 SPF)
Bit depth                   : 16 bits
Compression mode            : Lossy
Stream size                 : 266 MiB (1%)
Title                       : Japanese
Language                    : Japanese
Service kind                : Complete Main
Default                     : Yes
Forced                      : No

Text #1
ID                          : 3
Format                      : PGS
Muxing mode                 : zlib
Codec ID                    : S_HDMV/PGS
Codec ID/Info               : Picture based subtitle format used on BDs/HD-DVDs
Duration                    : 1 h 22 min
Bit rate                    : 24.7 kb/s
Count of elements           : 1362
Stream size                 : 14.5 MiB (0%)
Title                       : English
Language                    : English
Default                     : No
Forced                      : No

Text #2
ID                          : 4
Format                      : PGS
Muxing mode                 : zlib
Codec ID                    : S_HDMV/PGS
Codec ID/Info               : Picture based subtitle format used on BDs/HD-DVDs
Duration                    : 1 h 22 min
Bit rate                    : 13.5 kb/s
Count of elements           : 916
Stream size                 : 7.96 MiB (0%)
Title                       : Turkish
Language                    : Turkish
Default                     : Yes
Forced                      : No

[Image: 47078025144_c78645a673_b.jpg]

[Image: 33990185158_248920c8c3_b.jpg]

[Image: tdown.png]

For Only Vip Members

Tokyo Drifter (1966) Bluray Remux 1080p AVC DD 1.0 VIP
Reply


Possibly Related Threads…
Thread Author Replies Views Last Post
  Dune Drifter 2020 1080p Remux AVC DTS-HD MA 5.1-playBD KAiJu 0 1 8 hours ago
Last Post: KAiJu
  Smoke Over London 1966 1080p Blu-ray Remux AVC DTS-HD MA 2 0-HDT KAiJu 0 4 01-20-2022, 06:50 AM
Last Post: KAiJu
  Madame X 1966 1080p BluRay REMUX AVC FLAC 2 0-EPSiLON KAiJu 0 77 09-10-2021, 06:57 AM
Last Post: KAiJu
  The Deadly Bees 1966 Hybrid 1080p Remux AVC FLAC 2 0-playBD KAiJu 0 73 09-01-2021, 02:39 PM
Last Post: KAiJu
  El Dorado (1966) Bluray REMUX 1080p AVC DD 2.0-HUS AbrA 0 78 07-17-2021, 07:41 PM
Last Post: AbrA

Forum Jump:


Users browsing this thread: 1 Guest(s)

Powered By MyBB
RSS RSS Syndication
Updated By iAndrew | 2022