Thread Rating:
  • 0 Vote(s) - 0 Average
  • 1
  • 2
  • 3
  • 4
  • 5

[-]
Tags
to a mockingbird bluray kill avc 1080p 1962 en hd ma 1 remux dts 5 tr

  To Kill a Mockingbird (1962) Bluray Remux 1080p TR-EN AVC DTS-HD MA 5.1
#1
To Kill a Mockingbird (1962) Bluray Remux 1080p TR-EN AVC DTS-HD MA 5.1

[Image: tt0056592.jpg]

[Image: imdb.png]
https://www.imdb.com/title/tt0056592/

[Image: info.png]
To Kill a Mockingbird 1962 TR EN.mkv
Format                      : Matroska
Format version              : Version 4 / Version 2
File size                   : 27.8 GiB
Duration                    : 2 h 9 min
Overall bit rate mode       : Variable
Overall bit rate            : 30.8 Mb/s
Movie name                  : To Kill a Mockingbird
Encoded date                : UTC 2017-06-30 21:10:30
Writing application         : mkvmerge v13.0.0 ('The Juggler') 64bit
Writing library             : libebml v1.3.4 + libmatroska v1.4.5

Video
ID                          : 1
Format                      : AVC
Format/Info                 : Advanced Video Codec
Format profile              : [email protected]
Format settings, CABAC      : Yes
Format settings, ReFrames   : 2 frames
Format settings, GOP        : M=3, N=24
Codec ID                    : V_MPEG4/ISO/AVC
Duration                    : 2 h 9 min
Bit rate mode               : Variable
Bit rate                    : 28.3 Mb/s
Maximum bit rate            : 35.0 Mb/s
Width                       : 1 920 pixels
Height                      : 1 080 pixels
Display aspect ratio        : 16:9
Frame rate mode             : Constant
Frame rate                  : 23.976 (24000/1001) FPS
Color space                 : YUV
Chroma subsampling          : 4:2:0
Bit depth                   : 8 bits
Scan type                   : Progressive
Bits/(Pixel*Frame)          : 0.569
Stream size                 : 25.5 GiB (92%)
Title                       : To Kill a Mockingbird
Writing library             : x264 core 148
Encoding settings           : cabac=1 / ref=1 / deblock=0:0:0 / analyse=0:0 / me=dia / subme=0 / psy=1 / psy_rd=1.00:0.00 / mixed_ref=0 / me_range=16 / chroma_me=1 / trellis=0 / 8x8dct=0 / cqm=0 / deadzone=21,11 / fast_pskip=1 / chroma_qp_offset=0 / threads=4 / lookahead_threads=1 / sliced_threads=0 / nr=0 / decimate=1 / interlaced=0 / constrained_intra=0 / bframes=2 / b_pyramid=0 / b_adapt=0 / b_bias=0 / direct=1 / weightb=0 / open_gop=0 / weightp=1 / keyint=24 / keyint_min=1 / scenecut=0 / intra_refresh=0 / rc_lookahead=0 / rc=abr / mbtree=0 / bitrate=28264 / ratetol=1.0 / qcomp=0.60 / qpmin=0 / qpmax=69 / qpstep=4 / vbv_maxrate=35000 / vbv_bufsize=30000 / nal_hrd=vbr / filler=0 / ip_ratio=1.40 / pb_ratio=1.30 / aq=0
Language                    : English
Default                     : Yes
Forced                      : No

Audio #1
ID                          : 2
Format                      : DTS
Format/Info                 : Digital Theater Systems
Format profile              : MA / Core
Mode                        : 16
Format settings, Endianness : Big
Codec ID                    : A_DTS
Duration                    : 2 h 9 min
Bit rate mode               : Variable / Constant
Bit rate                    : 2 048 kb/s / 1 509 kb/s
Channel(s)                  : 6 channels
Channel positions           : Front: L C R, Side: L R, LFE
Sampling rate               : 48.0 kHz
Frame rate                  : 93.750 FPS (512 spf)
Bit depth                   : 24 bits
Compression mode            : Lossless / Lossy
Stream size                 : 1.88 GiB (7%)
Title                       : English
Language                    : English
Default                     : Yes
Forced                      : No

Audio #2
ID                          : 3
Format                      : DTS
Format/Info                 : Digital Theater Systems
Mode                        : 16
Format settings, Endianness : Big
Codec ID                    : A_DTS
Duration                    : 2 h 9 min
Bit rate mode               : Constant
Bit rate                    : 447 kb/s
Channel(s)                  : 2 channels
Channel positions           : Front: L R
Sampling rate               : 48.0 kHz
Frame rate                  : 93.750 FPS (512 spf)
Bit depth                   : 24 bits
Compression mode            : Lossy
Stream size                 : 413 MiB (1%)
Title                       : Turkish
Language                    : Turkish
Default                     : No
Forced                      : No

Text #1
ID                          : 4
Format                      : PGS
Muxing mode                 : zlib
Codec ID                    : S_HDMV/PGS
Codec ID/Info               : Picture based subtitle format used on BDs/HD-DVDs
Duration                    : 2 h 8 min
Bit rate                    : 33.6 kb/s
Count of elements           : 3069
Stream size                 : 30.9 MiB (0%)
Title                       : English
Language                    : English
Default                     : No
Forced                      : No

Text #2
ID                          : 5
Format                      : PGS
Muxing mode                 : zlib
Codec ID                    : S_HDMV/PGS
Codec ID/Info               : Picture based subtitle format used on BDs/HD-DVDs
Duration                    : 2 h 6 min
Bit rate                    : 30.3 kb/s
Count of elements           : 2436
Stream size                 : 27.3 MiB (0%)
Title                       : Turkish
Language                    : Turkish
Default                     : Yes
Forced                      : No

[Image: vlcsnap-error380-jpg-c916c15e29df36e15dd...52fabd.jpg]

[Image: vlcsnap-error755-jpg-ef3cd5af575bd402059...1bf7cb.jpg]

[Image: tdown.png]

For Only Vip Members

To Kill a Mockingbird (1962) Bluray Remux 1080p TR-EN AVC DTS-HD MA 5.1 VIP
Reply


Possibly Related Threads…
Thread Author Replies Views Last Post
  Kill Switch (2008) Bluray Remux 1080p AVC DTS 5.1 admin 0 683 08-30-2019, 11:35 AM
Last Post: admin
  Sin City A Dame to Kill For (2013) Bluray Remux 1080p AVC DTS-HD MA 5.1 admin 0 882 08-24-2019, 10:52 AM
Last Post: admin
  Kill the Messenger (2014) Bluray Remux 1080p AVC DTS-HD MA 5.1 admin 0 757 07-17-2019, 09:19 AM
Last Post: admin
  Kill Command (2016) Bluray Remux 1080p AVC DTS-HD MA 5.1 admin 0 744 07-08-2019, 11:16 AM
Last Post: admin
  Hatari (1962) Bluray Remux 1080p AVC TrueHD 2.0 admin 0 679 06-22-2019, 11:29 AM
Last Post: admin

Forum Jump:


Users browsing this thread: 1 Guest(s)

Powered By MyBB
Theme By Audentio Design
Updated By iAndrew | 2018