Thread Rating:
  • 0 Vote(s) - 0 Average
  • 1
  • 2
  • 3
  • 4
  • 5

[-]
Tags
bluray 1080p hd ma tideland 1 vc remux 2005 dts 5

  Tideland (2005) Bluray Remux 1080p VC-1 DTS-HD MA 5.1
#1
Tideland (2005) Bluray Remux 1080p VC-1 DTS-HD MA 5.1

[Image: tt0410764.jpg]

[Image: imdb.png]
https://www.imdb.com/title/tt0410764/

[Image: info.png]
Tideland 2005 EN.mkv
Format                      : Matroska
Format version              : Version 4 / Version 2
File size                   : 16.8 GiB
Duration                    : 2 h 0 min
Overall bit rate            : 20.0 Mb/s
Movie name                  : Tideland
Encoded date                : UTC 2017-08-17 23:15:53
Writing application         : mkvmerge v14.0.0 ('Flow') 64bit
Writing library             : libebml v1.3.4 + libmatroska v1.4.5

Video
ID                          : 1
Format                      : VC-1
Format profile              : [email protected]
Codec ID                    : V_MS/VFW/FOURCC / WVC1
Codec ID/Hint               : Microsoft
Duration                    : 2 h 0 min
Bit rate                    : 18.8 Mb/s
Width                       : 1 920 pixels
Height                      : 1 080 pixels
Display aspect ratio        : 16:9
Frame rate mode             : Constant
Frame rate                  : 23.976 (24000/1001) FPS
Color space                 : YUV
Chroma subsampling          : 4:2:0
Bit depth                   : 8 bits
Scan type                   : Progressive
Compression mode            : Lossy
Bits/(Pixel*Frame)          : 0.379
Stream size                 : 15.8 GiB (94%)
Title                       : Tideland
Language                    : English
Default                     : Yes
Forced                      : No

Audio
ID                          : 2
Format                      : DTS
Format/Info                 : Digital Theater Systems
Codec ID                    : A_DTS
Duration                    : 2 h 0 min
Bit rate mode               : Constant
Bit rate                    : 1 152 kb/s
Channel(s)                  : 6 channels
Channel positions           : Front: L C R, Side: L R, LFE
Sampling rate               : 48.0 kHz
Frame rate                  : 93.750 FPS (512 SPF)
Bit depth                   : 24 bits
Compression mode            : Lossy
Stream size                 : 989 MiB (6%)
Title                       : English
Language                    : English
Default                     : Yes
Forced                      : No

Text #1
ID                          : 3
Format                      : PGS
Muxing mode                 : zlib
Codec ID                    : S_HDMV/PGS
Codec ID/Info               : Picture based subtitle format used on BDs/HD-DVDs
Duration                    : 1 h 53 min
Bit rate                    : 11.2 kb/s
Count of elements           : 2566
Stream size                 : 9.09 MiB (0%)
Title                       : English
Language                    : English
Default                     : No
Forced                      : No

Text #2
ID                          : 4
Format                      : PGS
Muxing mode                 : zlib
Codec ID                    : S_HDMV/PGS
Codec ID/Info               : Picture based subtitle format used on BDs/HD-DVDs
Duration                    : 1 h 53 min
Bit rate                    : 23.0 kb/s
Count of elements           : 2260
Stream size                 : 18.8 MiB (0%)
Title                       : Turkish
Language                    : Turkish
Default                     : Yes
Forced                      : No

[Image: 46951132195_b3d0f3eba4_b.jpg]

[Image: 47077932214_6f780b76aa_b.jpg]

[Image: tdown.png]

For Only Vip Members

Tideland (2005) Bluray Remux 1080p VC-1 DTS-HD MA 5.1 VIP
Reply


Possibly Related Threads…
Thread Author Replies Views Last Post
  Robots (2005) Bluray REMUX 1080p AVC DTS 5.1-HUSe AbrA 0 94 05-22-2020, 10:24 PM
Last Post: AbrA
  Hostel Trilogy (2005-2007-2011) Bluray REMUX 1080p AVC DD 5.1-HuSe admin 0 207 03-09-2020, 05:57 PM
Last Post: admin
  The Descent (2005) Bluray Remux 1080p VC-1 DTS-HD MA 5.1 admin 1 594 02-14-2020, 07:08 AM
Last Post: scorpion2200
  Sin City (2005) Bluray Remux 1080p TR EN AVC DTS-HD MA 5.1 admin 0 395 08-24-2019, 10:47 AM
Last Post: admin
  Dominion Prequel to the Exorcist (2005) Bluray Remux 1080p AVC DTS-HD MA 5.1 admin 0 371 08-19-2019, 12:41 PM
Last Post: admin

Forum Jump:


Users browsing this thread: 2 Guest(s)

Powered By MyBB
Theme By Audentio Design
Updated By iAndrew | 2018