Thread Rating:
  • 0 Vote(s) - 0 Average
  • 1
  • 2
  • 3
  • 4
  • 5

[-]
Tags
bluray three missouri avc 1080p 2017 billboards ebbing outside 1 remux dts 5

 
  Three Billboards Outside Ebbing Missouri (2017) Bluray Remux 1080p AVC DTS 5.1
#1
Three Billboards Outside Ebbing Missouri (2017) Bluray Remux 1080p AVC DTS 5.1

[Image: tt5027774.jpg]

[Image: imdb.png]
https://www.imdb.com/title/tt5027774/

[Image: info.png]
Three Billboards Outside Ebbing, Missouri 2017 TR EN.mkv
Format                      : Matroska
Format version              : Version 4 / Version 2
File size                   : 25.2 GiB
Duration                    : 1 h 55 min
Overall bit rate mode       : Variable
Overall bit rate            : 31.2 Mb/s
Movie name                  : Three Billboards Outside Ebbing, Missouri
Encoded date                : UTC 2018-02-20 17:03:21
Writing application         : mkvmerge v20.0.0 ('I Am The Sun') 64-bit
Writing library             : libebml v1.3.5 + libmatroska v1.4.8

Video
ID                          : 1
Format                      : AVC
Format/Info                 : Advanced Video Codec
Format profile              : [email protected]
Format settings             : CABAC / 4 Ref Frames
Format settings, CABAC      : Yes
Format settings, ReFrames   : 4 frames
Codec ID                    : V_MPEG4/ISO/AVC
Duration                    : 1 h 55 min
Bit rate mode               : Variable
Bit rate                    : 27.1 Mb/s
Maximum bit rate            : 33.4 Mb/s
Width                       : 1 920 pixels
Height                      : 1 080 pixels
Display aspect ratio        : 16:9
Frame rate mode             : Constant
Frame rate                  : 23.976 (24000/1001) FPS
Color space                 : YUV
Chroma subsampling          : 4:2:0
Bit depth                   : 8 bits
Scan type                   : Progressive
Bits/(Pixel*Frame)          : 0.546
Stream size                 : 21.9 GiB (87%)
Title                       : Three Billboards Outside Ebbing, Missouri
Language                    : English
Default                     : Yes
Forced                      : No

Audio #1
ID                          : 2
Format                      : DTS
Format/Info                 : Digital Theater Systems
Format profile              : MA / Core
Codec ID                    : A_DTS
Duration                    : 1 h 55 min
Bit rate mode               : Variable / Constant
Bit rate                    : 3 625 kb/s / 1 509 kb/s
Channel(s)                  : 6 channels
Channel positions           : Front: L C R, Side: L R, LFE
Sampling rate               : 48.0 kHz
Frame rate                  : 93.750 FPS (512 SPF)
Bit depth                   : 24 bits
Compression mode            : Lossless / Lossy
Stream size                 : 2.92 GiB (12%)
Title                       : English
Language                    : English
Default                     : Yes
Forced                      : No

Audio #2
ID                          : 3
Format                      : AC-3
Format/Info                 : Audio Coding 3
Codec ID                    : A_AC3
Duration                    : 1 h 55 min
Bit rate mode               : Constant
Bit rate                    : 448 kb/s
Channel(s)                  : 6 channels
Channel positions           : Front: L C R, Side: L R, LFE
Sampling rate               : 48.0 kHz
Frame rate                  : 31.250 FPS (1536 SPF)
Bit depth                   : 16 bits
Compression mode            : Lossy
Stream size                 : 370 MiB (1%)
Title                       : Turkish
Language                    : Turkish
Service kind                : Complete Main
Default                     : No
Forced                      : No

Text #1
ID                          : 4
Format                      : PGS
Muxing mode                 : zlib
Codec ID                    : S_HDMV/PGS
Codec ID/Info               : Picture based subtitle format used on BDs/HD-DVDs
Duration                    : 1 h 53 min
Bit rate                    : 48.0 kb/s
Count of elements           : 3477
Stream size                 : 38.8 MiB (0%)
Title                       : English
Language                    : English
Default                     : No
Forced                      : No

Text #2
ID                          : 5
Format                      : PGS
Muxing mode                 : zlib
Codec ID                    : S_HDMV/PGS
Codec ID/Info               : Picture based subtitle format used on BDs/HD-DVDs
Duration                    : 1 h 53 min
Bit rate                    : 36.4 kb/s
Count of elements           : 2309
Stream size                 : 29.6 MiB (0%)
Title                       : Turkish
Language                    : Turkish
Default                     : Yes
Forced                      : No

[Image: sbPD91.jpg]

[Image: WihIcI.jpg]

[Image: tdown.png]

For Only Vip Members

Three Billboards Outside Ebbing Missouri (2017) Bluray Remux 1080p AVC DTS 5.1 VIP
Reply


Possibly Related Threads…
Thread Author Replies Views Last Post
  Three Billboards Outside Ebbing, Missouri 2017 1080p Blu-ray Remux AVC DTS-HD MA 5.1 KAiJu 0 276 01-03-2021, 01:54 PM
Last Post: KAiJu
  Three Billboards Outside Ebbing Missouri (2017) Bluray Remux 1080p AVC DTS 5.1 admin 0 1,065 05-22-2019, 09:13 AM
Last Post: admin

Forum Jump:


Users browsing this thread: 1 Guest(s)

Powered By MyBB
RSS RSS Syndication
Updated By iAndrew | 2021