Thread Rating:
  • 0 Vote(s) - 0 Average
  • 1
  • 2
  • 3
  • 4
  • 5

[-]
Tags
bluray where you leave avc 1080p i this is hd ma 1 remux 2014 dts 5

 
  This Is Where I Leave You (2014) Bluray Remux 1080p AVC DTS-HD MA 5.1
#1
This Is Where I Leave You (2014) Bluray Remux 1080p AVC DTS-HD MA 5.1

[Image: tt1371150.jpg]

[Image: imdb.png]
https://www.imdb.com/title/tt1371150/

[Image: info.png]
This Is Where I Leave You 2014 TR EN.mkv
Format                      : Matroska
Format version              : Version 4 / Version 2
File size                   : 19.2 GiB
Duration                    : 1 h 43 min
Overall bit rate mode       : Variable
Overall bit rate            : 26.7 Mb/s
Movie name                  : This Is Where I Leave You
Encoded date                : UTC 2015-04-18 21:28:29
Writing application         : mkvmerge v7.8.0 ('River Man') 64bit built on Mar 27 2015 16:31:37
Writing library             : libebml v1.3.1 + libmatroska v1.4.2

Video
ID                          : 1
Format                      : AVC
Format/Info                 : Advanced Video Codec
Format profile              : [email protected]
Format settings, CABAC      : Yes
Format settings, ReFrames   : 2 frames
Codec ID                    : V_MPEG4/ISO/AVC
Duration                    : 1 h 43 min
Bit rate mode               : Variable
Bit rate                    : 22.9 Mb/s
Width                       : 1 920 pixels
Height                      : 1 080 pixels
Display aspect ratio        : 16:9
Frame rate mode             : Constant
Frame rate                  : 23.976 (24000/1001) FPS
Color space                 : YUV
Chroma subsampling          : 4:2:0
Bit depth                   : 8 bits
Scan type                   : Progressive
Bits/(Pixel*Frame)          : 0.462
Stream size                 : 16.6 GiB (86%)
Title                       : This Is Where I Leave You
Language                    : English
Default                     : Yes
Forced                      : No

Audio #1
ID                          : 2
Format                      : DTS
Format/Info                 : Digital Theater Systems
Format profile              : MA / Core
Mode                        : 16
Format settings, Endianness : Big
Codec ID                    : A_DTS
Duration                    : 1 h 43 min
Bit rate mode               : Variable / Constant
Bit rate                    : 3 469 kb/s / 1 509 kb/s
Channel(s)                  : 6 channels
Channel positions           : Front: L C R, Side: L R, LFE
Sampling rate               : 48.0 kHz
Frame rate                  : 93.750 FPS (512 spf)
Bit depth                   : 24 bits
Compression mode            : Lossless / Lossy
Stream size                 : 2.50 GiB (13%)
Title                       : English
Language                    : English
Default                     : Yes
Forced                      : No

Audio #2
ID                          : 3
Format                      : AC-3
Format/Info                 : Audio Coding 3
Mode                        : Dolby Digital
Format settings, Endianness : Big
Codec ID                    : A_AC3
Duration                    : 1 h 43 min
Bit rate mode               : Constant
Bit rate                    : 192 kb/s
Channel(s)                  : 2 channels
Channel positions           : Front: L R
Sampling rate               : 48.0 kHz
Frame rate                  : 31.250 FPS (1536 spf)
Bit depth                   : 16 bits
Compression mode            : Lossy
Stream size                 : 142 MiB (1%)
Title                       : Turkish
Language                    : Turkish
Service kind                : Complete Main
Default                     : No
Forced                      : No

Text #1
ID                          : 4
Format                      : PGS
Muxing mode                 : zlib
Codec ID                    : S_HDMV/PGS
Codec ID/Info               : Picture based subtitle format used on BDs/HD-DVDs
Duration                    : 1 h 42 min
Bit rate                    : 22.0 kb/s
Count of elements           : 3518
Stream size                 : 16.1 MiB (0%)
Title                       : English
Language                    : English
Default                     : No
Forced                      : No

Text #2
ID                          : 5
Format                      : PGS
Muxing mode                 : zlib
Codec ID                    : S_HDMV/PGS
Codec ID/Info               : Picture based subtitle format used on BDs/HD-DVDs
Duration                    : 1 h 42 min
Bit rate                    : 18.2 kb/s
Count of elements           : 3422
Stream size                 : 13.4 MiB (0%)
Title                       : Turkish
Language                    : Turkish
Default                     : Yes
Forced                      : No

[Image: vlcsnap-error781-jpg-bc5a8cd41239226e2e8...57e437.jpg]

[Image: vlcsnap-error902-jpg-0e52cd0939dff589739...fbf13f.jpg]

[Image: tdown.png]

For Only Vip Members

This Is Where I Leave You (2014) Bluray Remux 1080p AVC DTS-HD MA 5.1 VIP
Reply


Possibly Related Threads…
Thread Author Replies Views Last Post
  This Is Where I Leave You 2014 1080p Remux AVC DTS-HD MA 5.1-playBD KAiJu 0 62 08-17-2021, 11:40 AM
Last Post: KAiJu
  Leave No Trace (2018) Bluray Remux 1080p AVC DTS-HD MA 5.1 admin 0 1,177 07-12-2019, 08:57 AM
Last Post: admin
  Leave No Trace (2018) Bluray Remux 1080p AVC DTS-HD MA 5.1 admin 0 1,167 06-13-2019, 03:03 PM
Last Post: admin

Forum Jump:


Users browsing this thread: 1 Guest(s)

Powered By MyBB
RSS RSS Syndication
Updated By iAndrew | 2021