Thread Rating:
  • 0 Vote(s) - 0 Average
  • 1
  • 2
  • 3
  • 4
  • 5

[-]
Tags
in 1984 bluray woman avc 1080p the hd ma red 2 remux dts

  The Woman in Red (1984) Bluray Remux 1080p AVC DTS-HD MA 2.0
#1
The Woman in Red (1984) Bluray Remux 1080p AVC DTS-HD MA 2.0

[Image: tt0088414.jpg]

[Image: imdb.png]
https://www.imdb.com/title/tt0088414/

[Image: info.png]
The Woman in Red 1984 EN.mkv
Format                      : Matroska
Format version              : Version 4 / Version 2
File size                   : 17.1 GiB
Duration                    : 1 h 26 min
Overall bit rate mode       : Variable
Overall bit rate            : 28.1 Mb/s
Movie name                  : The Woman in Red
Encoded date                : UTC 2018-02-02 15:41:58
Writing application         : mkvmerge v20.0.0 ('I Am The Sun') 64-bit
Writing library             : libebml v1.3.5 + libmatroska v1.4.8

Video
ID                          : 1
Format                      : AVC
Format/Info                 : Advanced Video Codec
Format profile              : [email protected]
Format settings             : CABAC / 3 Ref Frames
Format settings, CABAC      : Yes
Format settings, ReFrames   : 3 frames
Format settings, GOP        : M=3, N=12
Codec ID                    : V_MPEG4/ISO/AVC
Duration                    : 1 h 26 min
Bit rate mode               : Variable
Bit rate                    : 26.5 Mb/s
Maximum bit rate            : 32.3 Mb/s
Width                       : 1 920 pixels
Height                      : 1 080 pixels
Display aspect ratio        : 16:9
Frame rate mode             : Constant
Frame rate                  : 23.976 (24000/1001) FPS
Standard                    : NTSC
Color space                 : YUV
Chroma subsampling          : 4:2:0
Bit depth                   : 8 bits
Scan type                   : Progressive
Bits/(Pixel*Frame)          : 0.534
Stream size                 : 16.1 GiB (94%)
Title                       : The Woman in Red
Language                    : English
Default                     : Yes
Forced                      : No
Color range                 : Limited
Color primaries             : BT.709
Transfer characteristics    : BT.709
Matrix coefficients         : BT.709

Audio
ID                          : 2
Format                      : DTS
Format/Info                 : Digital Theater Systems
Format profile              : MA / Core
Codec ID                    : A_DTS
Duration                    : 1 h 26 min
Bit rate mode               : Variable / Constant
Bit rate                    : 1 536 kb/s / 1 509 kb/s
Channel(s)                  : 2 channels
Channel positions           : Front: L R
Sampling rate               : 48.0 kHz
Frame rate                  : 93.750 FPS (512 SPF)
Bit depth                   : 16 bits
Compression mode            : Lossless / Lossy
Delay relative to video     : 11 s 10 ms
Stream size                 : 966 MiB (6%)
Title                       : English
Language                    : English
Default                     : Yes
Forced                      : No

Text #1
ID                          : 3
Format                      : PGS
Muxing mode                 : zlib
Codec ID                    : S_HDMV/PGS
Codec ID/Info               : Picture based subtitle format used on BDs/HD-DVDs
Duration                    : 1 h 21 min
Bit rate                    : 28.4 kb/s
Count of elements           : 2086
Stream size                 : 16.5 MiB (0%)
Title                       : English
Language                    : English
Default                     : No
Forced                      : No

Text #2
ID                          : 4
Format                      : PGS
Muxing mode                 : zlib
Codec ID                    : S_HDMV/PGS
Codec ID/Info               : Picture based subtitle format used on BDs/HD-DVDs
Duration                    : 1 h 21 min
Bit rate                    : 31.6 kb/s
Count of elements           : 2070
Stream size                 : 18.4 MiB (0%)
Title                       : Turkish
Language                    : Turkish
Default                     : Yes
Forced                      : No

[Image: 47078333894_c61e3aaa95_b.jpg]

[Image: 46951538715_c6439920a9_b.jpg]

[Image: tdown.png]

For Only Vip Members

The Woman in Red (1984) Bluray Remux 1080p AVC DTS-HD MA 2.0 VIP
Reply


Possibly Related Threads…
Thread Author Replies Views Last Post
  Paris Texas (1984) Bluray REMUX 1080p TR-EN AVC DTS-HD MA 5.1-BdC admin 0 359 01-08-2020, 03:52 PM
Last Post: admin
  Kiss of the Spider Woman (1985) Bluray Remux 1080p AVC DTS 5.1 admin 0 396 08-30-2019, 11:41 AM
Last Post: admin
  Gremlins 1-2 (1984-1990) Bluray Remux 1080p VC-1 TrueHD 5.1 admin 0 359 08-21-2019, 01:27 PM
Last Post: admin
  Amadeus (1984) Bluray Remux 1080p VC-1 TrueHD 5.1 admin 0 411 07-09-2019, 11:56 AM
Last Post: admin
  Conan the Destroyer (1984) Bluray Remux 1080p AVC DTS-HD MA 5.1 admin 0 405 07-08-2019, 10:12 AM
Last Post: admin

Forum Jump:


Users browsing this thread: 1 Guest(s)

Powered By MyBB
Theme By Audentio Design
Updated By iAndrew | 2018