Thread Rating:
  • 0 Vote(s) - 0 Average
  • 1
  • 2
  • 3
  • 4
  • 5

[-]
Tags
villainess bluray avc 1080p 2017 the hd ma 2 remux dts

  The Villainess (2017) Bluray Remux 1080p AVC DTS-HD MA 2.0
#1
The Villainess (2017) Bluray Remux 1080p AVC DTS-HD MA 2.0

[Image: tt6777338.jpg]

[Image: imdb.png]
https://www.imdb.com/title/tt6777338/

[Image: info.png]
The Villainess aka Ak-Nyeo 2017 KO.mkv
Format                      : Matroska
Format version              : Version 4 / Version 2
File size                   : 25.8 GiB
Duration                    : 2 h 3 min
Overall bit rate mode       : Variable
Overall bit rate            : 29.9 Mb/s
Movie name                  : The Villainess aka Ak-Nyeo
Encoded date                : UTC 2017-11-23 19:05:54
Writing application         : mkvmerge v18.0.0 ('Apricity') 64-bit
Writing library             : libebml v1.3.5 + libmatroska v1.4.8

Video
ID                          : 1
Format                      : AVC
Format/Info                 : Advanced Video Codec
Format profile              : [email protected]
Format settings, CABAC      : Yes
Format settings, ReFrames   : 4 frames
Codec ID                    : V_MPEG4/ISO/AVC
Duration                    : 2 h 3 min
Bit rate mode               : Variable
Bit rate                    : 27.3 Mb/s
Maximum bit rate            : 30.0 Mb/s
Width                       : 1 920 pixels
Height                      : 1 080 pixels
Display aspect ratio        : 16:9
Frame rate mode             : Constant
Frame rate                  : 24.000 FPS
Standard                    : NTSC
Color space                 : YUV
Chroma subsampling          : 4:2:0
Bit depth                   : 8 bits
Scan type                   : Progressive
Bits/(Pixel*Frame)          : 0.548
Stream size                 : 23.5 GiB (91%)
Title                       : The Villainess aka Ak-Nyeo
Language                    : Korean
Default                     : Yes
Forced                      : No
Color range                 : Limited
Color primaries             : BT.709
Transfer characteristics    : BT.709
Matrix coefficients         : BT.709

Audio
ID                          : 2
Format                      : DTS
Format/Info                 : Digital Theater Systems
Format profile              : MA / Core
Mode                        : 16
Format settings, Endianness : Big
Codec ID                    : A_DTS
Duration                    : 2 h 3 min
Bit rate mode               : Variable / Constant
Bit rate                    : 2 664 kb/s / 1 509 kb/s
Channel(s)                  : 2 channels
Channel positions           : Front: L R
Sampling rate               : 48.0 kHz
Frame rate                  : 93.750 FPS (512 spf)
Bit depth                   : 16 bits
Compression mode            : Lossless / Lossy
Stream size                 : 2.30 GiB (9%)
Title                       : Korean
Language                    : Korean
Default                     : Yes
Forced                      : No

Text #1
ID                          : 3
Format                      : PGS
Muxing mode                 : zlib
Codec ID                    : S_HDMV/PGS
Codec ID/Info               : Picture based subtitle format used on BDs/HD-DVDs
Duration                    : 2 h 3 min
Bit rate                    : 16.3 kb/s
Count of elements           : 1742
Stream size                 : 14.4 MiB (0%)
Title                       : English
Language                    : English
Default                     : No
Forced                      : No

Text #2
ID                          : 4
Format                      : PGS
Muxing mode                 : zlib
Codec ID                    : S_HDMV/PGS
Codec ID/Info               : Picture based subtitle format used on BDs/HD-DVDs
Duration                    : 1 h 56 min
Bit rate                    : 12.8 kb/s
Count of elements           : 1442
Stream size                 : 10.7 MiB (0%)
Title                       : Turkish
Language                    : Turkish
Default                     : Yes
Forced                      : No

[Image: 33958526428_fd56a4e3d1_b.jpg]

[Image: 47835917471_0ecd9b499c_b.jpg]

[Image: tdown.png]

For Only Vip Members

The Villainess (2017) Bluray Remux 1080p AVC DTS-HD MA 2.0 VIP
Reply


Forum Jump:


Users browsing this thread: 1 Guest(s)

Powered By MyBB
Theme By Audentio Design
Updated By iAndrew | 2018