Thread Rating:
  • 0 Vote(s) - 0 Average
  • 1
  • 2
  • 3
  • 4
  • 5

[-]
Tags
bluray avc 1080p the verdict hd ma 1 remux dts 5 1982

 
  The Verdict (1982) Bluray Remux 1080p AVC DTS-HD MA 5.1
#1
The Verdict (1982) Bluray Remux 1080p AVC DTS-HD MA 5.1

[Image: tt0084855.jpg]

[Image: imdb.png]
https://www.imdb.com/title/tt0084855/

[Image: info.png]
The Verdict 1982 EN.mkv
Format                      : Matroska
Format version              : Version 4 / Version 2
File size                   : 28.1 GiB
Duration                    : 2 h 8 min
Overall bit rate mode       : Variable
Overall bit rate            : 31.2 Mb/s
Movie name                  : The Verdict
Encoded date                : UTC 2017-07-09 19:30:08
Writing application         : mkvmerge v13.0.0 ('The Juggler') 64bit
Writing library             : libebml v1.3.4 + libmatroska v1.4.5

Video
ID                          : 1
Format                      : AVC
Format/Info                 : Advanced Video Codec
Format profile              : [email protected]
Format settings, CABAC      : Yes
Format settings, ReFrames   : 4 frames
Codec ID                    : V_MPEG4/ISO/AVC
Duration                    : 2 h 8 min
Bit rate mode               : Variable
Bit rate                    : 28.7 Mb/s
Maximum bit rate            : 32.0 Mb/s
Width                       : 1 920 pixels
Height                      : 1 080 pixels
Display aspect ratio        : 16:9
Frame rate mode             : Constant
Frame rate                  : 23.976 (24000/1001) FPS
Color space                 : YUV
Chroma subsampling          : 4:2:0
Bit depth                   : 8 bits
Scan type                   : Progressive
Bits/(Pixel*Frame)          : 0.578
Stream size                 : 25.9 GiB (92%)
Title                       : The Verdict
Language                    : English
Default                     : Yes
Forced                      : No

Audio
ID                          : 2
Format                      : DTS
Format/Info                 : Digital Theater Systems
Format profile              : MA / Core
Mode                        : 16
Format settings, Endianness : Big
Codec ID                    : A_DTS
Duration                    : 2 h 8 min
Bit rate mode               : Variable / Constant
Bit rate                    : 2 434 kb/s / 1 509 kb/s
Channel(s)                  : 6 channels
Channel positions           : Front: L C R, Side: L R, LFE
Sampling rate               : 48.0 kHz
Frame rate                  : 93.750 FPS (512 spf)
Bit depth                   : 24 bits
Compression mode            : Lossless / Lossy
Stream size                 : 2.19 GiB (8%)
Title                       : English
Language                    : English
Default                     : Yes
Forced                      : No

Text #1
ID                          : 3
Format                      : PGS
Muxing mode                 : zlib
Codec ID                    : S_HDMV/PGS
Codec ID/Info               : Picture based subtitle format used on BDs/HD-DVDs
Duration                    : 2 h 5 min
Bit rate                    : 38.1 kb/s
Count of elements           : 2834
Stream size                 : 34.3 MiB (0%)
Title                       : English
Language                    : English
Default                     : No
Forced                      : No

Text #2
ID                          : 4
Format                      : PGS
Muxing mode                 : zlib
Codec ID                    : S_HDMV/PGS
Codec ID/Info               : Picture based subtitle format used on BDs/HD-DVDs
Duration                    : 2 h 2 min
Bit rate                    : 28.4 kb/s
Count of elements           : 2628
Stream size                 : 25.0 MiB (0%)
Title                       : Turkish
Language                    : Turkish
Default                     : Yes
Forced                      : No

[Image: vlcsnap-error471-jpg-7f1bd19cfe75f1b3411...880002.jpg]

[Image: vlcsnap-error992-jpg-70bb378fcdfb7ffe5c7...7f964a.jpg]

[Image: tdown.png]

For Only Vip Members

The Verdict (1982) Bluray Remux 1080p AVC DTS-HD MA 5.1 VIP
Reply


Possibly Related Threads…
Thread Author Replies Views Last Post
  Cain at Abel 1982 1080p Blu-ray Remux AVC FLAC 2 0-HDT KAiJu 0 8 05-17-2022, 06:23 AM
Last Post: KAiJu
  Boat People 1982 1080p Blu-ray Remux AVC FLAC 1 0-HDT KAiJu 0 7 05-17-2022, 06:18 AM
Last Post: KAiJu
  The Sword and the Sorcerer 1982 1080p BluRay REMUX AVC DTS-HD MA 5.1-Kenobi KAiJu 0 14 05-16-2022, 12:46 PM
Last Post: KAiJu
  Grease 2 1982 1080p Blu-ray Remux AVC TrueHD 5.1 - KRaLiMaRKo KAiJu 0 17 05-16-2022, 09:35 AM
Last Post: KAiJu
  Death Valley 1982 1080p Blu-ray Remux AVC DTS-HD MA 5.1 - KRaLiMaRKo KAiJu 0 47 04-27-2022, 09:33 AM
Last Post: KAiJu

Forum Jump:


Users browsing this thread: 1 Guest(s)

Powered By MyBB
RSS RSS Syndication
Updated By iAndrew | 2022