Thread Rating:
  • 0 Vote(s) - 0 Average
  • 1
  • 2
  • 3
  • 4
  • 5

[-]
Tags
bluray 2002 transporter 2015 1080p 7 the hd ma 1 vc remux dts

  The Transporter (2002-2015) Bluray Remux 1080p VC-1 DTS-HD MA 7.1
#1
The Transporter (2002-2015) Bluray Remux 1080p VC-1 DTS-HD MA 7.1

[Image: tt0293662.jpg]

[Image: imdb.png]
https://www.imdb.com/title/tt0293662/
https://www.imdb.com/title/tt0388482/
https://www.imdb.com/title/tt1129442/
https://www.imdb.com/title/tt2938956/

[Image: info.png]
The Transporter 2002 EN.mkv
Format                      : Matroska
Format version              : Version 4 / Version 2
File size                   : 13.6 GiB
Duration                    : 1 h 32 min
Overall bit rate            : 21.0 Mb/s
Encoded date                : UTC 2014-08-27 16:32:52
Writing application         : mkvmerge v7.1.0 ('Good Love') 64bit built on Jul 27 2014 13:06:55
Writing library             : libebml v1.3.0 + libmatroska v1.4.1

Video
ID                          : 1
Format                      : VC-1
Format profile              : [email protected]
Codec ID                    : V_MS/VFW/FOURCC / WVC1
Codec ID/Hint               : Microsoft
Duration                    : 1 h 32 min
Bit rate                    : 19.0 Mb/s
Width                       : 1 920 pixels
Height                      : 1 080 pixels
Display aspect ratio        : 16:9
Frame rate mode             : Constant
Frame rate                  : 23.976 (24000/1001) FPS
Color space                 : YUV
Chroma subsampling          : 4:2:0
Bit depth                   : 8 bits
Scan type                   : Progressive
Compression mode            : Lossy
Bits/(Pixel*Frame)          : 0.381
Stream size                 : 12.2 GiB (90%)
Title                       : The Transporter
Language                    : English
Default                     : Yes
Forced                      : No

Audio
ID                          : 2
Format                      : DTS
Format/Info                 : Digital Theater Systems
Format profile              : HRA / ES Discrete / Core
Mode                        : 16
Format settings, Endianness : Big
Codec ID                    : A_DTS
Duration                    : 1 h 32 min
Bit rate mode               : Constant
Bit rate                    : 2 046 kb/s / 1 509 kb/s / 1 509 kb/s
Channel(s)                  : 7 channels / 7 channels / 6 channels
Channel positions           : Front: L C R, Side: L R, Back: C, LFE / Front: L C R, Side: L R, Back: C, LFE / Front: L C R, Side: L R, LFE
Sampling rate               : 48.0 kHz
Frame rate                  : 93.750 FPS (512 spf)
Bit depth                   : 16 bits
Compression mode            : Lossy
Stream size                 : 1.32 GiB (10%)
Title                       : English
Language                    : English
Default                     : Yes
Forced                      : No

Text #1
ID                          : 3
Format                      : PGS
Muxing mode                 : zlib
Codec ID                    : S_HDMV/PGS
Codec ID/Info               : Picture based subtitle format used on BDs/HD-DVDs
Duration                    : 1 h 23 min
Bit rate                    : 5 946 b/s
Count of elements           : 888
Stream size                 : 3.53 MiB (0%)
Title                       : English
Language                    : English
Default                     : No
Forced                      : No

Text #2
ID                          : 4
Format                      : PGS
Muxing mode                 : zlib
Codec ID                    : S_HDMV/PGS
Codec ID/Info               : Picture based subtitle format used on BDs/HD-DVDs
Duration                    : 1 h 23 min
Bit rate                    : 7 199 b/s
Count of elements           : 952
Stream size                 : 4.27 MiB (0%)
Title                       : Turkish
Language                    : Turkish
Default                     : Yes
Forced                      : No

[Image: vlcsnap-error009-jpg-e8f5982754ed70e6110...a552f2.jpg]

[Image: vlcsnap-error929-jpg-eeb871af18d1c7fe6ac...460dd3.jpg]

[Image: tdown.png]

For Only Vip Members

The Transporter (2002-2015) Bluray Remux 1080p VC-1 DTS-HD MA 7.1 VIP
Reply


Possibly Related Threads…
Thread Author Replies Views Last Post
  Ali G Indahouse (2002) Bluray REMUX 1080p EN-TR AVC DTS-HD MA 5.1-FGT AbrA 0 484 07-05-2020, 04:49 PM
Last Post: AbrA
  The Ring 1-2-3 (2002-2017) Bluray Remux 1080p AVC DTS 5.1 admin 1 961 03-24-2020, 04:03 AM
Last Post: Batiburrillo
  Undercover Brother (2002) Bluray Remux 1080p AVC DTS-HD MA 5.1 admin 0 877 08-24-2019, 12:44 PM
Last Post: admin
  Naked Weapon (2002) Bluray Remux 1080p AVC TrueHD 7.1 admin 0 722 08-23-2019, 09:21 AM
Last Post: admin
  28 Days Later (2002) Bluray Remux 1080p TR EN AVC DTS-HD MA 5.1 admin 0 843 08-18-2019, 05:38 PM
Last Post: admin

Forum Jump:


Users browsing this thread: 1 Guest(s)

Powered By MyBB
Theme By Audentio Design
Updated By iAndrew | 2018