Thread Rating:
  • 0 Vote(s) - 0 Average
  • 1
  • 2
  • 3
  • 4
  • 5

[-]
Tags
flac bluray thin blue line avc 1080p the 1988 1 remux 5

 
  The Thin Blue Line (1988) Bluray Remux 1080p AVC FLAC 5.1
#1
The Thin Blue Line (1988) Bluray Remux 1080p AVC FLAC 5.1

[Image: tt0096257.jpg]

[Image: imdb.png]
https://www.imdb.com/title/tt0096257/

[Image: info.png]
The Thin Blue Line 1988 EN.mkv
Format                      : Matroska
Format version              : Version 4 / Version 2
File size                   : 25.2 GiB
Duration                    : 1 h 41 min
Overall bit rate mode       : Variable
Overall bit rate            : 35.5 Mb/s
Movie name                  : The Thin Blue Line
Encoded date                : UTC 2017-07-09 19:18:35
Writing application         : mkvmerge v13.0.0 ('The Juggler') 64bit
Writing library             : libebml v1.3.4 + libmatroska v1.4.5

Video
ID                          : 1
Format                      : AVC
Format/Info                 : Advanced Video Codec
Format profile              : [email protected]
Format settings, CABAC      : Yes
Format settings, ReFrames   : 4 frames
Codec ID                    : V_MPEG4/ISO/AVC
Duration                    : 1 h 41 min
Bit rate mode               : Variable
Bit rate                    : 34.1 Mb/s
Maximum bit rate            : 37.0 Mb/s
Width                       : 1 920 pixels
Height                      : 1 080 pixels
Display aspect ratio        : 16:9
Frame rate mode             : Constant
Frame rate                  : 23.976 (24000/1001) FPS
Color space                 : YUV
Chroma subsampling          : 4:2:0
Bit depth                   : 8 bits
Scan type                   : Progressive
Bits/(Pixel*Frame)          : 0.686
Stream size                 : 24.2 GiB (96%)
Title                       : The Thin Blue Line
Language                    : English
Default                     : Yes
Forced                      : No

Audio
ID                          : 2
Format                      : FLAC
Format/Info                 : Free Lossless Audio Codec
Codec ID                    : A_FLAC
Duration                    : 1 h 41 min
Bit rate mode               : Variable
Bit rate                    : 1 303 kb/s
Channel(s)                  : 2 channels
Channel positions           : Front: L R
Sampling rate               : 48.0 kHz
Frame rate                  : 11.719 FPS (4096 spf)
Bit depth                   : 24 bits
Stream size                 : 948 MiB (4%)
Title                       : English
Writing library             : libFLAC 1.2.1 (UTC 2007-09-17)
Language                    : English
Default                     : Yes
Forced                      : No

Text #1
ID                          : 3
Format                      : PGS
Muxing mode                 : zlib
Codec ID                    : S_HDMV/PGS
Codec ID/Info               : Picture based subtitle format used on BDs/HD-DVDs
Duration                    : 1 h 34 min
Bit rate                    : 78.7 kb/s
Count of elements           : 2916
Stream size                 : 53.4 MiB (0%)
Title                       : English
Language                    : English
Default                     : No
Forced                      : No

Text #2
ID                          : 4
Format                      : PGS
Muxing mode                 : zlib
Codec ID                    : S_HDMV/PGS
Codec ID/Info               : Picture based subtitle format used on BDs/HD-DVDs
Duration                    : 1 h 35 min
Bit rate                    : 44.6 kb/s
Count of elements           : 2472
Stream size                 : 30.5 MiB (0%)
Title                       : Turkish
Language                    : Turkish
Default                     : Yes
Forced                      : No

[Image: vlcsnap-error364-jpg-9f1138aeca5a5606ad0...c05034.jpg]

[Image: vlcsnap-error834-jpg-95f5d6aa659a6a6c18d...74cc60.jpg]

[Image: tdown.png]

For Only Vip Members

The Thin Blue Line (1988) Bluray Remux 1080p AVC FLAC 5.1 VIP
Reply


Possibly Related Threads…
Thread Author Replies Views Last Post
  Tampopo (1985) REPACK BluRay Remux 1080p AVC FLAC 2.0-ZQ AbrA 0 1 3 hours ago
Last Post: AbrA
  The Rift 1990 1080p Blu-ray Remux AVC FLAC 2.0 - KRaLiMaRKo KAiJu 0 2 12-03-2021, 07:26 AM
Last Post: KAiJu
  This Is My Country 1984 1080p BluRay REMUX AVC FLAC 2 0-TRiToN KAiJu 0 3 12-02-2021, 07:28 AM
Last Post: KAiJu
  Dead Space 1991 1080p Blu-ray Remux AVC FLAC 2.0 - KRaLiMaRKo KAiJu 0 14 11-24-2021, 11:22 AM
Last Post: KAiJu
  The Last of Sheila 1973 1080p BluRay REMUX AVC FLAC 2 0-TRiToN KAiJu 0 15 11-21-2021, 10:50 PM
Last Post: KAiJu

Forum Jump:


Users browsing this thread: 1 Guest(s)

Powered By MyBB
RSS RSS Syndication
Updated By iAndrew | 2021