Thread Rating:
  • 0 Vote(s) - 0 Average
  • 1
  • 2
  • 3
  • 4
  • 5

[-]
Tags
mpeg bluray dd5 stoning m 1080p of the soraya 1 remux 2008

 
  The Stoning of Soraya M. (2008) Bluray Remux 1080p MPEG DD5.1
#1
The Stoning of Soraya M. (2008) Bluray Remux 1080p MPEG DD5.1

[Image: tt1277737.jpg]

[Image: imdb.png]
https://www.imdb.com/title/tt1277737/

[Image: info.png]
The Stoning of Soraya M 2008 EN.mkv
Format                      : Matroska
Format version              : Version 4 / Version 2
File size                   : 12.3 GiB
Duration                    : 1 h 54 min
Overall bit rate mode       : Variable
Overall bit rate            : 15.4 Mb/s
Movie name                  : The Stoning of Soraya M
Encoded date                : UTC 2017-07-09 16:09:50
Writing application         : mkvmerge v13.0.0 ('The Juggler') 64bit
Writing library             : libebml v1.3.4 + libmatroska v1.4.5

Video
ID                          : 1
Format                      : MPEG Video
Format version              : Version 2
Format profile              : [email protected]
Format settings, BVOP       : Yes
Format settings, Matrix     : Custom
Format settings, GOP        : M=3, N=12
Codec ID                    : V_MPEG2
Codec ID/Info               : MPEG 1 or 2 Video
Duration                    : 1 h 54 min
Bit rate mode               : Variable
Bit rate                    : 14.9 Mb/s
Maximum bit rate            : 20.0 Mb/s
Width                       : 1 920 pixels
Height                      : 1 080 pixels
Display aspect ratio        : 16:9
Frame rate mode             : Constant
Frame rate                  : 23.976 (24000/1001) FPS
Standard                    : Component
Color space                 : YUV
Chroma subsampling          : 4:2:0
Bit depth                   : 8 bits
Scan type                   : Progressive
Compression mode            : Lossy
Bits/(Pixel*Frame)          : 0.301
Time code of first frame    : 01:00:00:00
Time code source            : Group of pictures header
GOP, Open/Closed            : Closed
Stream size                 : 11.9 GiB (97%)
Title                       : The Stoning of Soraya M
Language                    : English
Default                     : Yes
Forced                      : No
Color primaries             : BT.709
Transfer characteristics    : BT.709
Matrix coefficients         : BT.709

Audio
ID                          : 2
Format                      : AC-3
Format/Info                 : Audio Coding 3
Format settings, Endianness : Big
Codec ID                    : A_AC3
Duration                    : 1 h 54 min
Bit rate mode               : Constant
Bit rate                    : 448 kb/s
Channel(s)                  : 6 channels
Channel positions           : Front: L C R, Side: L R, LFE
Sampling rate               : 48.0 kHz
Frame rate                  : 31.250 FPS (1536 spf)
Bit depth                   : 16 bits
Compression mode            : Lossy
Stream size                 : 366 MiB (3%)
Title                       : English
Language                    : English
Service kind                : Complete Main
Default                     : Yes
Forced                      : No

Text #1
ID                          : 3
Format                      : PGS
Muxing mode                 : zlib
Codec ID                    : S_HDMV/PGS
Codec ID/Info               : Picture based subtitle format used on BDs/HD-DVDs
Duration                    : 1 h 54 min
Bit rate                    : 1 586 b/s
Count of elements           : 182
Stream size                 : 1.30 MiB (0%)
Title                       : English
Language                    : English
Default                     : No
Forced                      : No

Text #2
ID                          : 4
Format                      : PGS
Muxing mode                 : zlib
Codec ID                    : S_HDMV/PGS
Codec ID/Info               : Picture based subtitle format used on BDs/HD-DVDs
Duration                    : 1 h 50 min
Bit rate                    : 19.5 kb/s
Count of elements           : 1938
Stream size                 : 15.5 MiB (0%)
Title                       : Turkish
Language                    : Turkish
Default                     : Yes
Forced                      : No

[Image: vlcsnap-error244-jpg-1eba738153ee3c62c5a...61925a.jpg]

[Image: vlcsnap-error906-jpg-9852400019fbd027283...f87169.jpg]

[Image: tdown.png]

For Only Vip Members

The Stoning of Soraya M. (2008) Bluray Remux 1080p MPEG DD5.1 VIP
Reply


Possibly Related Threads…
Thread Author Replies Views Last Post
  De Poel 2014 1080p Blu-ray Remux MPEG-2 DTS-HD MA 5.1-HDT KAiJu 0 15 05-15-2022, 08:19 AM
Last Post: KAiJu
  The Sentinel 2006 1080p BluRay REMUX MPEG-2 DTS-HD MA 5.1-Skoops KAiJu 0 13 05-12-2022, 09:55 AM
Last Post: KAiJu
  Dáblova past 1962 1080p Blu-ray Remux MPEG-2 FLAC 2 0-HDT KAiJu 0 32 05-05-2022, 12:56 PM
Last Post: KAiJu
  Jakobs Wife 2021 1080p Blu-ray Remux MPEG-2 DTS-HD MA 5.1-HDT KAiJu 0 32 04-24-2022, 10:10 AM
Last Post: KAiJu
  Hustle Down 2021 1080p Blu-ray Remux MPEG-2 DTS-HD MA 5.1-HDT KAiJu 0 36 04-24-2022, 09:59 AM
Last Post: KAiJu

Forum Jump:


Users browsing this thread: 1 Guest(s)

Powered By MyBB
RSS RSS Syndication
Updated By iAndrew | 2022