Thread Rating:
  • 0 Vote(s) - 0 Average
  • 1
  • 2
  • 3
  • 4
  • 5

[-]
Tags
dd bluray shining 1080p the 1 vc remux 5 1980

  The Shining (1980) Bluray Remux 1080p VC-1 DD 5.1
#1
The Shining (1980) Bluray Remux 1080p VC-1 DD 5.1

[Image: tt0081505.jpg]

[Image: imdb.png]
https://www.imdb.com/title/tt0081505/

[Image: info.png]
The Shining 1980 EN.mkv
Format                      : Matroska
Format version              : Version 4 / Version 2
File size                   : 13.9 GiB
Duration                    : 1 h 59 min
Overall bit rate            : 16.6 Mb/s
Movie name                  : The Shining
Encoded date                : UTC 2016-01-09 21:44:20
Writing application         : mkvmerge v8.3.0 ('Over the Horizon') 64bit
Writing library             : libebml v1.3.1 + libmatroska v1.4.2

Video
ID                          : 1
Format                      : VC-1
Format profile              : [email protected]
Codec ID                    : V_MS/VFW/FOURCC / WVC1
Codec ID/Hint               : Microsoft
Duration                    : 1 h 59 min
Bit rate                    : 15.9 Mb/s
Width                       : 1 920 pixels
Height                      : 1 080 pixels
Display aspect ratio        : 16:9
Frame rate mode             : Constant
Frame rate                  : 23.976 (24000/1001) FPS
Color space                 : YUV
Chroma subsampling          : 4:2:0
Bit depth                   : 8 bits
Scan type                   : Progressive
Compression mode            : Lossy
Bits/(Pixel*Frame)          : 0.321
Stream size                 : 13.3 GiB (96%)
Title                       : The Shining
Language                    : English
Default                     : Yes
Forced                      : No

Audio
ID                          : 2
Format                      : AC-3
Format/Info                 : Audio Coding 3
Format settings, Endianness : Big
Codec ID                    : A_AC3
Duration                    : 1 h 59 min
Bit rate mode               : Constant
Bit rate                    : 640 kb/s
Channel(s)                  : 6 channels
Channel positions           : Front: L C R, Side: L R, LFE
Sampling rate               : 48.0 kHz
Frame rate                  : 31.250 FPS (1536 spf)
Bit depth                   : 16 bits
Compression mode            : Lossy
Stream size                 : 548 MiB (4%)
Title                       : English
Language                    : English
Service kind                : Complete Main
Default                     : Yes
Forced                      : No

Text #1
ID                          : 3
Format                      : PGS
Muxing mode                 : zlib
Codec ID                    : S_HDMV/PGS
Codec ID/Info               : Picture based subtitle format used on BDs/HD-DVDs
Duration                    : 1 h 56 min
Bit rate                    : 8 564 b/s
Count of elements           : 1960
Stream size                 : 7.13 MiB (0%)
Title                       : English
Language                    : English
Default                     : No
Forced                      : No

Text #2
ID                          : 4
Format                      : PGS
Muxing mode                 : zlib
Codec ID                    : S_HDMV/PGS
Codec ID/Info               : Picture based subtitle format used on BDs/HD-DVDs
Duration                    : 1 h 55 min
Bit rate                    : 6 938 b/s
Count of elements           : 1924
Stream size                 : 5.73 MiB (0%)
Title                       : Turkish
Language                    : Turkish
Default                     : Yes
Forced                      : No

[Image: 32888472147_aa6d3e0789_b.jpg]

[Image: 32888474667_169dc1c336_b.jpg]

[Image: tdown.png]

For Only Vip Members

The Shining (1980) Bluray Remux 1080p VC-1 DD 5.1 VIP
Reply


Possibly Related Threads…
Thread Author Replies Views Last Post
  Shi di chu ma - The YoungMaster (1980) BluRay REMUX 1080p CH-TR AVC DTS 7.1 AbrA 0 711 04-07-2020, 10:32 AM
Last Post: AbrA
  Cruising (1980) Bluray Remux 1080p AVC DTS 5.1 admin 0 677 08-30-2019, 11:13 AM
Last Post: admin
  The Blues Brothers (1980) Bluray Remux 1080p AVC DTS 5.1 admin 0 709 07-28-2019, 06:40 PM
Last Post: admin
  Gloria (1980) Bluray Remux 1080p AVC DTS 2.0 admin 0 693 06-12-2019, 06:05 AM
Last Post: admin
  Fame (1980) Bluray Remux 1080p AVC DD 5.1 admin 0 814 06-05-2019, 01:34 PM
Last Post: admin

Forum Jump:


Users browsing this thread: 1 Guest(s)

Powered By MyBB
Theme By Audentio Design
Updated By iAndrew | 2018