Thread Rating:
  • 0 Vote(s) - 0 Average
  • 1
  • 2
  • 3
  • 4
  • 5

[-]
Tags
1994 bluray dd5 huse redemption x264 1080p the en 1 shawshank tr

  The Shawshank Redemption (1994) Bluray 1080p TR-EN DD5.1 x264-HUSE
#1
The Shawshank Redemption (1994) Bluray 1080p TR-EN DD5.1 x264-HUSE

[Image: tt0111161.jpg]

[Image: imdb.png]
https://www.imdb.com/title/tt0111161/

[Image: info.png]
The.Shawshank.Redemption.1994.Bluray.1080pTR-EN.DD5.1.x264-HUSE.mkv
Format                                  : Matroska
Format version                          : Version 4
File size                                : 5.03 GiB
Duration                                : 2 h 22 min
Overall bit rate                        : 5 055 kb/s
Encoded date                            : UTC 2019-06-13 08:40:31
Writing application                      : HandBrake 1.2.2 2019022300
Writing library                          : Lavf58.20.100
ErrorDetectionType                      : Per level 1

Video
ID                                      : 1
Format                                  : AVC
Format/Info                              : Advanced Video Codec
Format profile                          : [email protected]
Format settings                          : CABAC / 4 Ref Frames
Format settings, CABAC                  : Yes
Format settings, Reference frames        : 4 frames
Codec ID                                : V_MPEG4/ISO/AVC
Duration                                : 2 h 22 min
Bit rate                                : 4 000 kb/s
Width                                    : 1 920 pixels
Height                                  : 1 080 pixels
Display aspect ratio                    : 16:9
Frame rate mode                          : Constant
Frame rate                              : 23.976 (24000/1001) FPS
Color space                              : YUV
Chroma subsampling                      : 4:2:0
Bit depth                                : 8 bits
Scan type                                : Progressive
Bits/(Pixel*Frame)                      : 0.080
Stream size                              : 3.85 GiB (76%)
Writing library                          : x264 core 157 r2935 545de2f
Encoding settings                        : cabac=1 / ref=4 / deblock=1:-1:-1 / analyse=0x3:0x113 / me=hex / subme=8 / psy=1 / psy_rd=1.00:0.15 / mixed_ref=1 / me_range=16 / chroma_me=1 / trellis=2 / 8x8dct=1 / cqm=0 / deadzone=21,11 / fast_pskip=1 / chroma_qp_offset=-3 / threads=12 / lookahead_threads=2 / sliced_threads=0 / nr=0 / decimate=1 / interlaced=0 / bluray_compat=0 / constrained_intra=0 / bframes=3 / b_pyramid=2 / b_adapt=1 / b_bias=0 / direct=3 / weightb=1 / open_gop=0 / weightp=2 / keyint=240 / keyint_min=24 / scenecut=40 / intra_refresh=0 / rc_lookahead=50 / rc=abr / mbtree=1 / bitrate=4000 / ratetol=1.0 / qcomp=0.60 / qpmin=0 / qpmax=69 / qpstep=4 / vbv_maxrate=62500 / vbv_bufsize=78125 / nal_hrd=none / filler=0 / ip_ratio=1.40 / aq=1:1.00
Default                                  : Yes
Forced                                  : No
Color range                              : Limited
Color primaries                          : BT.709
Transfer characteristics                : BT.709
Matrix coefficients                      : BT.709

Audio #1
ID                                      : 2
Format                                  : AC-3
Format/Info                              : Audio Coding 3
Commercial name                          : Dolby Digital
Codec ID                                : A_AC3
Duration                                : 2 h 22 min
Bit rate mode                            : Constant
Bit rate                                : 640 kb/s
Channel(s)                              : 6 channels
Channel layout                          : L R C LFE Ls Rs
Sampling rate                            : 48.0 kHz
Frame rate                              : 31.250 FPS (1536 SPF)
Bit depth                                : 16 bits
Compression mode                        : Lossy
Stream size                              : 653 MiB (13%)
Title                                    : Surround
Language                                : English
Service kind                            : Complete Main
Default                                  : Yes
Forced                                  : No

Audio #2
ID                                      : 3
Format                                  : AC-3
Format/Info                              : Audio Coding 3
Commercial name                          : Dolby Digital
Codec ID                                : A_AC3
Duration                                : 2 h 22 min
Bit rate mode                            : Constant
Bit rate                                : 448 kb/s
Channel(s)                              : 6 channels
Channel layout                          : L R C LFE Ls Rs
Sampling rate                            : 48.0 kHz
Frame rate                              : 31.250 FPS (1536 SPF)
Bit depth                                : 16 bits
Compression mode                        : Lossy
Delay relative to video                  : -5 ms
Stream size                              : 457 MiB (9%)
Title                                    : Surround
Language                                : Turkish
Service kind                            : Complete Main
Default                                  : No
Forced                                  : No

[Image: 6n5da9wT_o.jpg]

[Image: FLYAM5Vi_o.jpg]

[Image: tdown.png]

For Only Vip Members

The Shawshank Redemption (1994) Bluray 1080p TR-EN DD5.1 x264-HUSE VIP
Reply


Possibly Related Threads…
Thread Author Replies Views Last Post
  Stephen Kings The Stand (1994) Bluray 1080p DD 2.0 x264-HUS AbrA 0 109 02-03-2021, 11:16 AM
Last Post: AbrA
  Forrest Gump 1994 1080p UHD BluRay DD+7.1 x264-LoRD KAiJu 0 254 11-09-2020, 08:05 PM
Last Post: KAiJu
  Martyrs (2008) Bluray 1080p FR-TR x264-HUSe AbrA 0 208 11-08-2020, 03:42 PM
Last Post: AbrA
  The McKenzie Break (1970) WEBDL 1080p EN-TR DD2.0 x264-HUSe AbrA 0 218 10-14-2020, 03:18 PM
Last Post: AbrA
  Léon 1994 International Cut 1080p UHD BluRay DD+7.1 x264-LoRD KAiJu 0 329 10-13-2020, 06:56 AM
Last Post: KAiJu

Forum Jump:


Users browsing this thread: 1 Guest(s)

Powered By MyBB
Theme By Audentio Design
Updated By iAndrew | 2021