Thread Rating:
  • 0 Vote(s) - 0 Average
  • 1
  • 2
  • 3
  • 4
  • 5

[-]
Tags
bluray avc 1080p of shape 2017 the water 1 remux dts 5

 
  The Shape of Water (2017) Bluray Remux 1080p AVC DTS 5.1
#1
The Shape of Water (2017) Bluray Remux 1080p AVC DTS 5.1

[Image: tt5580390.jpg]

[Image: imdb.png]
https://www.imdb.com/title/tt5580390/

[Image: info.png]
The Shape of Water 2017 EN.mkv
Format                      : Matroska
Format version              : Version 4 / Version 2
File size                   : 26.9 GiB
Duration                    : 2 h 3 min
Overall bit rate mode       : Variable
Overall bit rate            : 31.3 Mb/s
Movie name                  : The Shape of Water
Encoded date                : UTC 2018-03-04 21:24:50
Writing application         : mkvmerge v21.0.0 ('Tardigrades Will Inherit The Earth') 64-bit
Writing library             : libebml v1.3.5 + libmatroska v1.4.8

Video
ID                          : 1
Format                      : AVC
Format/Info                 : Advanced Video Codec
Format profile              : [email protected]
Format settings             : CABAC / 4 Ref Frames
Format settings, CABAC      : Yes
Format settings, ReFrames   : 4 frames
Codec ID                    : V_MPEG4/ISO/AVC
Duration                    : 2 h 3 min
Bit rate mode               : Variable
Bit rate                    : 27.4 Mb/s
Maximum bit rate            : 34.2 Mb/s
Width                       : 1 920 pixels
Height                      : 1 080 pixels
Display aspect ratio        : 16:9
Frame rate mode             : Constant
Frame rate                  : 23.976 (24000/1001) FPS
Color space                 : YUV
Chroma subsampling          : 4:2:0
Bit depth                   : 8 bits
Scan type                   : Progressive
Bits/(Pixel*Frame)          : 0.551
Stream size                 : 23.6 GiB (88%)
Title                       : The Shape of Water
Language                    : English
Default                     : Yes
Forced                      : No

Audio
ID                          : 2
Format                      : DTS
Format/Info                 : Digital Theater Systems
Format profile              : MA / Core
Codec ID                    : A_DTS
Duration                    : 2 h 3 min
Bit rate mode               : Variable / Constant
Bit rate                    : 3 840 kb/s / 1 509 kb/s
Channel(s)                  : 6 channels
Channel positions           : Front: L C R, Side: L R, LFE
Sampling rate               : 48.0 kHz
Frame rate                  : 93.750 FPS (512 SPF)
Bit depth                   : 24 bits
Compression mode            : Lossless / Lossy
Stream size                 : 3.30 GiB (12%)
Title                       : English
Language                    : English
Default                     : Yes
Forced                      : No

Text #1
ID                          : 3
Format                      : PGS
Muxing mode                 : zlib
Codec ID                    : S_HDMV/PGS
Codec ID/Info               : Picture based subtitle format used on BDs/HD-DVDs
Duration                    : 2 h 2 min
Bit rate                    : 21.7 kb/s
Count of elements           : 3856
Stream size                 : 19.1 MiB (0%)
Title                       : English SDH
Language                    : English
Default                     : No
Forced                      : No

Text #2
ID                          : 4
Format                      : PGS
Muxing mode                 : zlib
Codec ID                    : S_HDMV/PGS
Codec ID/Info               : Picture based subtitle format used on BDs/HD-DVDs
Duration                    : 2 h 1 min
Bit rate                    : 26.9 kb/s
Count of elements           : 2034
Stream size                 : 23.3 MiB (0%)
Title                       : Turkish
Language                    : Turkish
Default                     : Yes
Forced                      : No

[Image: 4QqrWy.jpg]

[Image: 2iUGsJ.jpg]

[Image: tdown.png]

For Only Vip Members

The Shape of Water (2017) Bluray Remux 1080p AVC DTS 5.1 VIP
Reply


Possibly Related Threads…
Thread Author Replies Views Last Post
  Water for Elephants (2011) Bluray REMUX 1080p AVC DTS-HD MA 5.1-HUS AbrA 0 59 04-13-2021, 04:45 PM
Last Post: AbrA
  Lady in the Water (2006) Bluray Remux 1080p VC-1 DD 5.1 admin 0 1,130 06-23-2019, 01:36 PM
Last Post: admin
  The Water Horse (2007) Bluray Remux 1080p AVC TrueHD 5.1 admin 0 1,137 06-18-2019, 06:39 AM
Last Post: admin
  The SpongeBob Movie Sponge Out of Water (2015) Bluray Remux 1080p TR EN AVC DTS 5.1 admin 0 1,435 06-05-2019, 09:59 AM
Last Post: admin
  Water for Elephants (2011) Bluray Remux 1080p TR-EN AVC DTS-HD MA 5.1 admin 0 1,273 05-30-2019, 07:00 PM
Last Post: admin

Forum Jump:


Users browsing this thread: 1 Guest(s)

Powered By MyBB
RSS RSS Syndication
Updated By iAndrew | 2021