Thread Rating:
  • 0 Vote(s) - 0 Average
  • 1
  • 2
  • 3
  • 4
  • 5

[-]
Tags
bluray scorpion 2002 2015 1080p the king hd ma 1 vc remux dts collection 5

 
  The Scorpion King Collection (2002-2015) Bluray Remux 1080p VC-1 DTS-HD MA 5.1
#1
The Scorpion King Collection (2002-2015) Bluray Remux 1080p VC-1 DTS-HD MA 5.1

[Image: tt0277296.jpg]

[Image: imdb.png]
https://www.imdb.com/title/tt0277296/
https://www.imdb.com/title/tt1104123/
https://www.imdb.com/title/tt1781896/
https://www.imdb.com/title/tt3086386/

[Image: info.png]
The Scorpion King 2002 EN.mkv
Format                      : Matroska
Format version              : Version 4 / Version 2
File size                   : 17.9 GiB
Duration                    : 1 h 31 min
Overall bit rate            : 28.1 Mb/s
Encoded date                : UTC 2014-08-31 15:59:25
Writing application         : mkvmerge v7.1.0 ('Good Love') 64bit built on Jul 27 2014 13:06:55
Writing library             : libebml v1.3.0 + libmatroska v1.4.1

Video
ID                          : 1
Format                      : VC-1
Format profile              : [email protected]
Codec ID                    : V_MS/VFW/FOURCC / WVC1
Codec ID/Hint               : Microsoft
Duration                    : 1 h 31 min
Bit rate                    : 23.5 Mb/s
Width                       : 1 920 pixels
Height                      : 1 080 pixels
Display aspect ratio        : 16:9
Frame rate mode             : Constant
Frame rate                  : 23.976 (24000/1001) FPS
Color space                 : YUV
Chroma subsampling          : 4:2:0
Bit depth                   : 8 bits
Scan type                   : Progressive
Compression mode            : Lossy
Bits/(Pixel*Frame)          : 0.473
Stream size                 : 15.0 GiB (84%)
Title                       : The Scorpion King
Language                    : English
Default                     : Yes
Forced                      : No

Audio
ID                          : 2
Format                      : DTS
Format/Info                 : Digital Theater Systems
Format profile              : MA / Core
Mode                        : 16
Format settings, Endianness : Big
Codec ID                    : A_DTS
Duration                    : 1 h 31 min
Bit rate mode               : Variable / Constant
Bit rate                    : 4 551 kb/s / 1 509 kb/s
Channel(s)                  : 6 channels
Channel positions           : Front: L C R, Side: L R, LFE
Sampling rate               : 48.0 kHz
Frame rate                  : 93.750 FPS (512 spf)
Bit depth                   : 24 bits
Compression mode            : Lossless / Lossy
Stream size                 : 2.90 GiB (16%)
Title                       : English
Language                    : English
Default                     : Yes
Forced                      : No

Text #1
ID                          : 3
Format                      : PGS
Muxing mode                 : zlib
Codec ID                    : S_HDMV/PGS
Codec ID/Info               : Picture based subtitle format used on BDs/HD-DVDs
Duration                    : 1 h 29 min
Bit rate                    : 6 625 b/s
Count of elements           : 1424
Stream size                 : 4.24 MiB (0%)
Title                       : English
Language                    : English
Default                     : No
Forced                      : No

Text #2
ID                          : 4
Format                      : PGS
Muxing mode                 : zlib
Codec ID                    : S_HDMV/PGS
Codec ID/Info               : Picture based subtitle format used on BDs/HD-DVDs
Duration                    : 1 h 23 min
Bit rate                    : 7 828 b/s
Count of elements           : 1226
Stream size                 : 4.67 MiB (0%)
Title                       : Turkish
Language                    : Turkish
Default                     : Yes
Forced                      : No

[Image: vlcsnap-error359-jpg-2d88754311ccfebbab8...8550cc.jpg]

[Image: vlcsnap-error770-jpg-6878764354d2c8f702b...3ff803.jpg]

[Image: tdown.png]

For Only Vip Members

The Scorpion King Collection (2002-2015) Bluray Remux 1080p VC-1 DTS-HD MA 5.1 VIP
Reply


Possibly Related Threads…
Thread Author Replies Views Last Post
  Orange County 2002 1080p Blu-ray Remux AVC DTS-HD MA 5.1 - KRaLiMaRKo KAiJu 0 1 05-20-2022, 12:55 PM
Last Post: KAiJu
  Femme Fatale 2002 1080p Blu-ray Remux AVC DTS-HD MA 5.1-SiCFoI KAiJu 0 31 05-16-2022, 12:50 PM
Last Post: KAiJu
  A Hologram for the King 2016 1080p Blu-ray Remux AVC DTS-HD MA 5.1 - KRaLiMaRKo KAiJu 0 15 05-15-2022, 08:14 AM
Last Post: KAiJu
  The Girl Can't Help It 1956 CRITERION COLLECTION 1080p Remux AVC FLAC 1 0-playBD KAiJu 0 18 05-12-2022, 06:57 AM
Last Post: KAiJu
  Eyimofe A.K.A This Is My Desire 2020 Criterion Collection 1080p Blu-ray Remux AVC DT KAiJu 0 17 05-11-2022, 10:13 AM
Last Post: KAiJu

Forum Jump:


Users browsing this thread: 1 Guest(s)

Powered By MyBB
RSS RSS Syndication
Updated By iAndrew | 2022