Thread Rating:
  • 0 Vote(s) - 0 Average
  • 1
  • 2
  • 3
  • 4
  • 5

[-]
Tags
1983 bluray x264 right 1080p the prodji stuff dts

  The Right Stuff (1983) BluRay 1080p DTS x264-PRoDJi
#1
The Right Stuff (1983) BluRay 1080p DTS x264-PRoDJi

[Image: right.stuff.jpg]

[Image: imdb.png]
https://www.imdb.com/title/tt0086197/

[Image: info.png]
Format : Matroska
Format version : Version 4
File size : 16.0 GiB
Duration : 3 h 12 min
Overall bit rate : 11.9 Mb/s
Encoded date : UTC 2016-08-19 11:16:28
Writing application : mkvmerge v7.2.0 ('On Every Street') 64bit built on Sep 13 2014 15:52:10
Writing library : libebml v1.3.0 + libmatroska v1.4.1

Video
ID : 1
Format : AVC
Format/Info : Advanced Video Codec
Format profile : [email protected]
Format settings : CABAC / 3 Ref Frames
Format settings, CABAC : Yes
Format settings, RefFrames : 3 frames
Codec ID : V_MPEG4/ISO/AVC
Duration : 3 h 12 min
Bit rate : 10.1 Mb/s
Width : 1 920 pixels
Height : 1 080 pixels
Display aspect ratio : 16:9
Frame rate mode : Constant
Frame rate : 23.976 (24000/1001) FPS
Color space : YUV
Chroma subsampling : 4:2:0
Bit depth : 8 bits
Scan type : Progressive
Bits/(Pixel*Frame) : 0.204
Stream size : 13.7 GiB (86%)
Title : @10.1Mbps High Profiles @L4.1
Writing library : x264 core 148 r2638 7599210
Encoding settings : cabac=1 / ref=4 / deblock=1:-1:-1 / analyse=0x3:0x113 / me=umh / subme=9 / psy=1 / psy_rd=1.00:0.00 / mixed_ref=1 / me_range=24 / chroma_me=1 / trellis=2 / 8x8dct=1 / cqm=0 / deadzone=21,11 / fast_pskip=1 / chroma_qp_offset=-5 / threads=6 / lookahead_threads=1 / sliced_threads=0 / nr=0 / decimate=0 / interlaced=0 / bluray_compat=0 / constrained_intra=0 / bframes=5 / b_pyramid=1 / b_adapt=2 / b_bias=2 / direct=3 / weightb=1 / open_gop=0 / weightp=2 / keyint=230 / keyint_min=22 / scenecut=40 / intra_refresh=0 / rc_lookahead=45 / rc=2pass / mbtree=1 / bitrate=10150 / ratetol=1.0 / qcomp=0.60 / qpmin=10 / qpmax=41 / qpstep=4 / cplxblur=20.0 / qblur=0.5 / ip_ratio=1.30 / aq=1:1.00
Language : English
Default : Yes
Forced : No

Audio #1
ID : 2
Format : DTS
Format/Info : Digital Theater Systems
Codec ID : A_DTS
Duration : 3 h 12 min
Bit rate mode : Constant
Bit rate : 1 509 kb/s
Channel(s) : 6 channels
Channel layout : C L R Ls Rs LFE
Sampling rate : 48.0 kHz
Frame rate : 93.750 FPS (512 SPF)
Bit depth : 24 bits
Compression mode : Lossy
Stream size : 2.03 GiB (13%)
Title : [email protected] 6 chnls
Language : English
Default : Yes
Forced : No

Audio #2
ID : 3
Format : AC-3
Format/Info : Audio Coding 3
Commercial name : Dolby Digital
Codec ID : A_AC3
Duration : 3 h 12 min
Bit rate mode : Constant
Bit rate : 192 kb/s
Channel(s) : 2 channels
Channel layout : L R
Sampling rate : 48.0 kHz
Frame rate : 31.250 FPS (1536 SPF)
Bit depth : 16 bits
Compression mode : Lossy
Stream size : 265 MiB (2%)
Title : [email protected] 2 chnls
Language : Turkish
Service kind : Complete Main
Default : No
Forced : No

Text #1
ID : 4
Format : UTF-8
Codec ID : S_TEXT/UTF8
Codec ID/Info : UTF-8 Plain Text
Duration : 3 h 6 min
Bit rate : 44 b/s
Count of elements : 1751
Stream size : 61.2 KiB (0%)
Language : English
Default : Yes
Forced : No

Text #2
ID : 5
Format : UTF-8
Codec ID : S_TEXT/UTF8
Codec ID/Info : UTF-8 Plain Text
Duration : 3 h 6 min
Bit rate : 46 b/s
Count of elements : 1765
Stream size : 63.6 KiB (0%)
Language : Turkish
Default : No
Forced : No

Menu
00:00:00.000 : en:The Demon
00:05:05.222 : en:The X-1
00:07:22.609 : en:Slick or Yaeger
00:11:22.807 : en:Caught in the Desert
00:14:10.600 : en:Beyond the Sound Barrier
00:22:54.373 : en:Top Secret
00:25:25.023 : en:Best Pilot's Here
00:29:12.376 : enTongueudknockers Reunion
00:31:58.416 : en:Comparing Notes
00:35:51.608 : en:Bucks for Buck Rogers
00:39:23.278 : en:Where the Demon Lives
00:43:34.445 : en:Spaceman Candidates
00:49:38.142 : en:Best We Can Get
00:54:09.329 : en:TV Personality
00:56:23.463 : en:Count the Aviator In
00:58:15.409 : enTongueut to the Test
01:07:14.989 : enBig Grinueling Specimens
01:11:16.606 : en:Knowing Gordo Well
01:13:13.723 : en:Ordeal of Capsule Life
01:17:20.386 : en:Mercury Astronauts
01:26:16.588 : en:The Do-Rights
01:28:46.863 : en:Misfires
01:30:54.783 : en:Zippers and Monkeys
01:37:39.187 : en:Spacecraft Control
01:41:49.729 : en:First in Space
01:43:32.498 : en:Man Aloft: Russian
01:45:33.202 : en:On the March
01:46:36.932 : en:Flight Preparations
01:50:20.614 : enBig Grinelays - and Biological Urges
01:54:11.261 : en:First American in Space
02:00:15.125 : en:Grissom's Malfunction
02:05:47.999 : en:Celebration Glitch
02:13:58.197 : enTongueancho's in Memoriam
02:19:03.961 : en:The Glenns Say No
02:24:44.801 : en:Gordo and the Aborigines
02:26:43.878 : en:"Godspeed, John Glenn"
02:33:37.291 : en:Warning!
02:34:59.957 : en:Swirling Particles
02:39:02.408 : en:Reentry... Humming
02:44:25.481 : en:The NF-104
02:45:58.907 : en:Texas Welcome
02:52:46.606 : enTonguelane with his Name
02:56:24.616 : en:Fan Dance (Claire de Lune)
02:58:56.142 : en:Edge of the Envelope
03:03:40.801 : en:Gordo's Heavenly Light
03:06:29.553 : en:Coda / End Credits

[Image: 1.jpg]

[Image: 2.jpg]

[Image: tdown.png]

For Only Vip Members
Reply


Possibly Related Threads...
Thread Author Replies Views Last Post
  Blue Thunder (1983) BluRay 1080p AVC TrueHD 5.1 admin 0 163 01-11-2019, 02:01 PM
Last Post: admin
  All The Right Moves (1983) Bluray 1080p AVC DTS HD MA 5.1 admin 0 425 10-24-2017, 10:17 PM
Last Post: admin

Forum Jump:


Users browsing this thread: 1 Guest(s)

Powered By MyBB
Theme By Audentio Design
Updated By iAndrew | 2018