Thread Rating:
  • 0 Vote(s) - 0 Average
  • 1
  • 2
  • 3
  • 4
  • 5

[-]
Tags
mpeg bluray physician 2013 1080p the hd ma 2 remux dts

  The Physician (2013) Bluray remux 1080p MPEG DTS-HD MA 2.0
#1
The Physician (2013) Bluray remux 1080p MPEG DTS-HD MA 2.0

[Image: tt2101473.jpg]

[Image: imdb.png]
https://www.imdb.com/title/tt2101473/

[Image: info.png]
The Physician 2013 TR EN.mkv
Format                      : Matroska
Format version              : Version 4 / Version 2
File size                   : 32.5 GiB
Duration                    : 2 h 34 min
Overall bit rate mode       : Variable
Overall bit rate            : 30.0 Mb/s
Movie name                  : The Physician
Encoded date                : UTC 2017-11-02 19:32:49
Writing application         : mkvmerge v16.0.0 ('Protest') 64-bit
Writing library             : libebml v1.3.5 + libmatroska v1.4.8

Video
ID                          : 1
Format                      : MPEG Video
Format version              : Version 2
Format profile              : [email protected]
Format settings, BVOP       : Yes
Format settings, Matrix     : Custom
Format settings, GOP        : M=3, N=15
Codec ID                    : V_MPEG2
Codec ID/Info               : MPEG 1 or 2 Video
Duration                    : 2 h 34 min
Bit rate mode               : Variable
Bit rate                    : 24.7 Mb/s
Maximum bit rate            : 30.0 Mb/s
Width                       : 1 920 pixels
Height                      : 1 080 pixels
Display aspect ratio        : 16:9
Frame rate mode             : Constant
Frame rate                  : 23.976 (24000/1001) FPS
Color space                 : YUV
Chroma subsampling          : 4:2:0
Bit depth                   : 8 bits
Scan type                   : Progressive
Compression mode            : Lossy
Bits/(Pixel*Frame)          : 0.497
Time code of first frame    : 10:00:00:00
Time code source            : Group of pictures header
GOP, Open/Closed            : Closed
Stream size                 : 26.7 GiB (82%)
Title                       : The Physician
Language                    : English
Default                     : Yes
Forced                      : No

Audio #1
ID                          : 2
Format                      : DTS
Format/Info                 : Digital Theater Systems
Format profile              : MA / Core
Mode                        : 16
Format settings, Endianness : Big
Codec ID                    : A_DTS
Duration                    : 2 h 34 min
Bit rate mode               : Variable / Constant
Bit rate                    : 1 593 kb/s / 1 509 kb/s
Channel(s)                  : 2 channels
Channel positions           : Front: L R
Sampling rate               : 48.0 kHz
Frame rate                  : 93.750 FPS (512 spf)
Bit depth                   : 16 bits
Compression mode            : Lossless / Lossy
Stream size                 : 1.72 GiB (5%)
Title                       : Turkish
Language                    : Turkish
Default                     : No
Forced                      : No

Audio #2
ID                          : 3
Format                      : DTS
Format/Info                 : Digital Theater Systems
Format profile              : MA / Core
Mode                        : 16
Format settings, Endianness : Big
Codec ID                    : A_DTS
Duration                    : 2 h 34 min
Bit rate mode               : Variable / Constant
Bit rate                    : 3 695 kb/s / 1 509 kb/s
Channel(s)                  : 6 channels
Channel positions           : Front: L C R, Side: L R, LFE
Sampling rate               : 48.0 kHz
Frame rate                  : 93.750 FPS (512 spf)
Bit depth                   : 24 bits
Compression mode            : Lossless / Lossy
Stream size                 : 3.99 GiB (12%)
Title                       : English
Language                    : English
Default                     : Yes
Forced                      : No

Text
ID                          : 4
Format                      : PGS
Muxing mode                 : zlib
Codec ID                    : S_HDMV/PGS
Codec ID/Info               : Picture based subtitle format used on BDs/HD-DVDs
Duration                    : 2 h 28 min
Bit rate                    : 28.7 kb/s
Count of elements           : 2438
Stream size                 : 30.4 MiB (0%)
Title                       : Turkish
Language                    : Turkish
Default                     : Yes
Forced                      : No

[Image: vlcsnap-error076-jpg-7af82c56429a3f671b4...f90e0b.jpg]

[Image: vlcsnap-error411-jpg-d1764eae1e996384300...5525e7.jpg]

[Image: tdown.png]

For Only Vip Members

The Physician (2013) Bluray remux 1080p MPEG DTS-HD MA 2.0 VIP
Reply


Possibly Related Threads…
Thread Author Replies Views Last Post
  The Last Boy 2019 1080p Remux MPEG-2 DTS-HD MA 5.1-playBD KAiJu 0 82 11-30-2020, 01:28 PM
Last Post: KAiJu
  Invisible Sue Ploetzlich unsichtbar 2018 1080p Remux MPEG-2 DTS-HD MA 5.1-playBD KAiJu 0 114 10-31-2020, 06:44 AM
Last Post: KAiJu
  Clara 2018 1080p Blu-ray Remux MPEG-2 DTS-HD MA 5.1 - KRaLiMaRKo KAiJu 0 97 10-19-2020, 03:10 PM
Last Post: KAiJu
  Stagecoach (1939) Bluray Remux 1080p MPEG DD 2.0 admin 0 659 08-24-2019, 11:03 AM
Last Post: admin
  Payback Straight Up Directors Cut (2006) Bluray Remux 1080p MPEG DD 5.1 admin 0 866 08-23-2019, 01:59 PM
Last Post: admin

Forum Jump:


Users browsing this thread: 1 Guest(s)

Powered By MyBB
Theme By Audentio Design
Updated By iAndrew | 2018