Thread Rating:
  • 0 Vote(s) - 0 Average
  • 1
  • 2
  • 3
  • 4
  • 5

[-]
Tags
phantom bluray avc 1080p of the opera 2004 1 remux 5 truehd

 
  The Phantom of the Opera (2004) Bluray Remux 1080p AVC TrueHD 5.1
#1
The Phantom of the Opera (2004) Bluray Remux 1080p AVC TrueHD 5.1

[Image: tt0293508.jpg]

[Image: imdb.png]
https://www.imdb.com/title/tt0293508/

[Image: info.png]
The Phantom of the Opera 2004 EN.mkv
Format                      : Matroska
Format version              : Version 4 / Version 2
File size                   : 33.5 GiB
Duration                    : 2 h 21 min
Overall bit rate mode       : Variable
Overall bit rate            : 34.0 Mb/s
Encoded date                : UTC 2014-07-27 23:32:37
Writing application         : mkvmerge v7.0.0 ('Where We Going') 64bit built on Jun  9 2014 15:16:27
Writing library             : libebml v1.3.0 + libmatroska v1.4.1

Video
ID                          : 1
Format                      : AVC
Format/Info                 : Advanced Video Codec
Format profile              : [email protected]
Format settings, CABAC      : Yes
Format settings, ReFrames   : 4 frames
Codec ID                    : V_MPEG4/ISO/AVC
Duration                    : 2 h 21 min
Bit rate mode               : Constant
Bit rate                    : 32.3 Mb/s
Nominal bit rate            : 34.0 Mb/s
Width                       : 1 920 pixels
Height                      : 1 080 pixels
Display aspect ratio        : 16:9
Frame rate mode             : Constant
Frame rate                  : 23.976 (24000/1001) FPS
Standard                    : NTSC
Color space                 : YUV
Chroma subsampling          : 4:2:0
Bit depth                   : 8 bits
Scan type                   : Progressive
Bits/(Pixel*Frame)          : 0.650
Stream size                 : 31.9 GiB (95%)
Title                       : The Phantom of the Opera
Language                    : English
Default                     : Yes
Forced                      : No
Color range                 : Limited
Color primaries             : BT.709
Transfer characteristics    : BT.709
Matrix coefficients         : BT.709

Audio
ID                          : 2
Format                      : TrueHD
Codec ID                    : A_TRUEHD
Duration                    : 2 h 21 min
Bit rate mode               : Variable
Bit rate                    : 1 554 kb/s
Maximum bit rate            : 3 228 kb/s
Channel(s)                  : 6 channels
Channel positions           : Front: L C R, Side: L R, LFE
Sampling rate               : 48.0 kHz
Frame rate                  : 1 200.000 FPS (40 spf)
Compression mode            : Lossless
Stream size                 : 1.53 GiB (5%)
Title                       : English
Language                    : English
Default                     : Yes
Forced                      : No

Text #1
ID                          : 3
Format                      : PGS
Muxing mode                 : zlib
Codec ID                    : S_HDMV/PGS
Codec ID/Info               : Picture based subtitle format used on BDs/HD-DVDs
Duration                    : 2 h 8 min
Bit rate                    : 4 653 b/s
Count of elements           : 2472
Stream size                 : 4.27 MiB (0%)
Title                       : English
Language                    : English
Default                     : No
Forced                      : No

Text #2
ID                          : 4
Format                      : PGS
Muxing mode                 : zlib
Codec ID                    : S_HDMV/PGS
Codec ID/Info               : Picture based subtitle format used on BDs/HD-DVDs
Duration                    : 2 h 14 min
Bit rate                    : 10.1 kb/s
Count of elements           : 2606
Stream size                 : 9.71 MiB (0%)
Title                       : Turkish
Language                    : Turkish
Default                     : Yes
Forced                      : No

[Image: vlcsnap-error436-jpg-307e411206a5c9839db...8cf094.jpg]

[Image: vlcsnap-error762-jpg-35bf8c794a6d1798cf2...9ce280.jpg]

[Image: tdown.png]

For Only Vip Members

The Phantom of the Opera (2004) Bluray Remux 1080p AVC TrueHD 5.1 VIP
Reply


Possibly Related Threads…
Thread Author Replies Views Last Post
  Christmas with the Kranks 2004 1080p Blu-ray Remux AVC DTS-HD MA 5.1-MPN KAiJu 0 7 12-02-2021, 07:24 AM
Last Post: KAiJu
  Layer Cake (2004) Bluray REMUX 1080p MPEG-2 LPCM 5.1-HUS AbrA 0 37 09-13-2021, 08:14 PM
Last Post: AbrA
  Kung fu (2004) Bluray REMUX 1080p MPEG-2 LPCM 5.1-HUS AbrA 0 32 09-12-2021, 09:50 AM
Last Post: AbrA
  Primer 2004 1080p BluRay REMUX AVC FLAC 2 0-TRiToN KAiJu 0 41 09-06-2021, 02:54 PM
Last Post: KAiJu
  Bridget Jones The Edge Of Reason 2004 1080p Blu-ray Remux AVC DTS-HD MA 5.1-HDT KAiJu 0 69 08-02-2021, 02:02 PM
Last Post: KAiJu

Forum Jump:


Users browsing this thread: 1 Guest(s)

Powered By MyBB
RSS RSS Syndication
Updated By iAndrew | 2021