Thread Rating:
  • 0 Vote(s) - 0 Average
  • 1
  • 2
  • 3
  • 4
  • 5

[-]
Tags
2000 bluray 1080p perfect storm the en 1 vc remux 5 tr truehd

 
  The Perfect Storm (2000) Bluray Remux 1080p TR-EN VC-1 TrueHD 5.1
#1
The Perfect Storm (2000) Bluray Remux 1080p TR-EN VC-1 TrueHD 5.1

[Image: tt0177971.jpg]

[Image: imdb.png]
https://www.imdb.com/title/tt0177971/

[Image: info.png]
The Perfect Storm 2000 TR EN.mkv
Format                      : Matroska
Format version              : Version 4 / Version 2
File size                   : 17.8 GiB
Duration                    : 2 h 9 min
Overall bit rate mode       : Variable
Overall bit rate            : 19.7 Mb/s
Movie name                  : The Perfect Storm
Encoded date                : UTC 2015-12-14 21:35:32
Writing application         : mkvmerge v8.3.0 ('Over the Horizon') 64bit
Writing library             : libebml v1.3.1 + libmatroska v1.4.2

Video
ID                          : 1
Format                      : VC-1
Format profile              : [email protected]
Codec ID                    : V_MS/VFW/FOURCC / WVC1
Codec ID/Hint               : Microsoft
Duration                    : 2 h 9 min
Bit rate                    : 16.9 Mb/s
Width                       : 1 920 pixels
Height                      : 1 080 pixels
Display aspect ratio        : 16:9
Frame rate mode             : Constant
Frame rate                  : 23.976 (24000/1001) FPS
Color space                 : YUV
Chroma subsampling          : 4:2:0
Bit depth                   : 8 bits
Scan type                   : Progressive
Compression mode            : Lossy
Bits/(Pixel*Frame)          : 0.339
Stream size                 : 15.3 GiB (86%)
Title                       : The Perfect Storm
Language                    : English
Default                     : Yes
Forced                      : No

Audio #1
ID                          : 2
Format                      : TrueHD
Codec ID                    : A_TRUEHD
Duration                    : 2 h 9 min
Bit rate mode               : Variable
Bit rate                    : 1 878 kb/s
Maximum bit rate            : 3 168 kb/s
Channel(s)                  : 6 channels
Channel positions           : Front: L C R, Side: L R, LFE
Sampling rate               : 48.0 kHz
Frame rate                  : 1 200.000 FPS (40 spf)
Compression mode            : Lossless
Stream size                 : 1.70 GiB (10%)
Title                       : English THD
Language                    : English
Default                     : Yes
Forced                      : No

Audio #2
ID                          : 3
Format                      : AC-3
Format/Info                 : Audio Coding 3
Format settings, Endianness : Big
Codec ID                    : A_AC3
Duration                    : 2 h 9 min
Bit rate mode               : Constant
Bit rate                    : 640 kb/s
Channel(s)                  : 6 channels
Channel positions           : Front: L C R, Side: L R, LFE
Sampling rate               : 48.0 kHz
Frame rate                  : 31.250 FPS (1536 spf)
Bit depth                   : 16 bits
Compression mode            : Lossy
Stream size                 : 594 MiB (3%)
Title                       : English
Language                    : English
Service kind                : Complete Main
Default                     : No
Forced                      : No

Audio #3
ID                          : 4
Format                      : AC-3
Format/Info                 : Audio Coding 3
Format settings, Endianness : Big
Codec ID                    : A_AC3
Duration                    : 2 h 9 min
Bit rate mode               : Constant
Bit rate                    : 224 kb/s
Channel(s)                  : 2 channels
Channel positions           : Front: L R
Sampling rate               : 48.0 kHz
Frame rate                  : 31.250 FPS (1536 spf)
Bit depth                   : 16 bits
Compression mode            : Lossy
Stream size                 : 208 MiB (1%)
Title                       : Turkish
Language                    : Turkish
Service kind                : Complete Main
Default                     : No
Forced                      : No

Text #1
ID                          : 5
Format                      : PGS
Muxing mode                 : zlib
Codec ID                    : S_HDMV/PGS
Codec ID/Info               : Picture based subtitle format used on BDs/HD-DVDs
Duration                    : 2 h 7 min
Bit rate                    : 9 941 b/s
Count of elements           : 2482
Stream size                 : 9.08 MiB (0%)
Title                       : English
Language                    : English
Default                     : No
Forced                      : No

Text #2
ID                          : 6
Format                      : PGS
Muxing mode                 : zlib
Codec ID                    : S_HDMV/PGS
Codec ID/Info               : Picture based subtitle format used on BDs/HD-DVDs
Duration                    : 2 h 9 min
Bit rate                    : 5 704 b/s
Count of elements           : 2502
Stream size                 : 5.30 MiB (0%)
Title                       : Turkish
Language                    : Turkish
Default                     : Yes
Forced                      : No

[Image: vlcsnap-error704-jpg-41004bafd801fe9742f...362172.jpg]

[Image: vlcsnap-error892-jpg-5decdabefeb38865d88...de45da.jpg]

[Image: tdown.png]

For Only Vip Members

The Perfect Storm (2000) Bluray Remux 1080p TR-EN VC-1 TrueHD 5.1 VIP
Reply


Possibly Related Threads…
Thread Author Replies Views Last Post
  The Dish 2000 1080p BluRay REMUX AVC DTS-HD MA 5.1-EPSiLON KAiJu 0 13 05-15-2022, 08:06 AM
Last Post: KAiJu
  Shadow Of The Vampire 2000 1080p BluRay REMUX VC-1 DTS-HR 5 1-EPSiLON KAiJu 0 17 05-12-2022, 09:49 AM
Last Post: KAiJu
  Finding Forrester 2000 1080p Blu-ray Remux AVC DTS-HD MA 5.1 - KRaLiMaRKo KAiJu 0 33 05-03-2022, 07:52 AM
Last Post: KAiJu
  The Perfect Sleep 2009 1080p Blu-ray Remux AVC DTS-HD MA 2 0-HDT KAiJu 0 32 05-03-2022, 07:49 AM
Last Post: KAiJu
  Faithless 2000 1080p Blu-ray Remux AVC DTS-HD MA 5.1-HDT KAiJu 0 32 04-19-2022, 09:56 AM
Last Post: KAiJu

Forum Jump:


Users browsing this thread: 1 Guest(s)

Powered By MyBB
RSS RSS Syndication
Updated By iAndrew | 2022