Thread Rating:
  • 0 Vote(s) - 0 Average
  • 1
  • 2
  • 3
  • 4
  • 5

[-]
Tags
bluray avc 1080p the outlaw hd ma 1 remux dts 1976 josey 5 wales

  The Outlaw Josey Wales (1976) Bluray Remux 1080p AVC DTS-HD MA 5.1
#1
The Outlaw Josey Wales (1976) Bluray Remux 1080p AVC DTS-HD MA 5.1

[Image: tt0075029.jpg]

[Image: imdb.png]
https://www.imdb.com/title/tt0075029/

[Image: info.png]
The Outlaw Josey Wales 1976 EN.mkv
Format                      : Matroska
Format version              : Version 4 / Version 2
File size                   : 24.3 GiB
Duration                    : 2 h 15 min
Overall bit rate mode       : Variable
Overall bit rate            : 25.6 Mb/s
Movie name                  : The Outlaw Josey Wales
Encoded date                : UTC 2016-05-30 17:25:23
Writing application         : mkvmerge v8.3.0 ('Over the Horizon') 64bit
Writing library             : libebml v1.3.1 + libmatroska v1.4.2

Video
ID                          : 1
Format                      : AVC
Format/Info                 : Advanced Video Codec
Format profile              : [email protected]
Format settings, CABAC      : Yes
Format settings, ReFrames   : 2 frames
Codec ID                    : V_MPEG4/ISO/AVC
Duration                    : 2 h 15 min
Bit rate mode               : Variable
Bit rate                    : 22.0 Mb/s
Width                       : 1 920 pixels
Height                      : 1 080 pixels
Display aspect ratio        : 16:9
Frame rate mode             : Constant
Frame rate                  : 23.976 (24000/1001) FPS
Color space                 : YUV
Chroma subsampling          : 4:2:0
Bit depth                   : 8 bits
Scan type                   : Progressive
Bits/(Pixel*Frame)          : 0.442
Stream size                 : 20.8 GiB (86%)
Title                       : The Outlaw Josey Wales
Language                    : English
Default                     : Yes
Forced                      : No

Audio
ID                          : 2
Format                      : DTS
Format/Info                 : Digital Theater Systems
Format profile              : MA / Core
Mode                        : 16
Format settings, Endianness : Big
Codec ID                    : A_DTS
Duration                    : 2 h 15 min
Bit rate mode               : Variable / Constant
Bit rate                    : 3 590 kb/s / 1 509 kb/s
Channel(s)                  : 6 channels
Channel positions           : Front: L C R, Side: L R, LFE
Sampling rate               : 48.0 kHz
Frame rate                  : 93.750 FPS (512 spf)
Bit depth                   : 24 bits
Compression mode            : Lossless / Lossy
Stream size                 : 3.41 GiB (14%)
Title                       : English
Language                    : English
Default                     : Yes
Forced                      : No

Text #1
ID                          : 3
Format                      : PGS
Muxing mode                 : zlib
Codec ID                    : S_HDMV/PGS
Codec ID/Info               : Picture based subtitle format used on BDs/HD-DVDs
Duration                    : 2 h 15 min
Bit rate                    : 10.1 kb/s
Count of elements           : 2448
Stream size                 : 9.78 MiB (0%)
Title                       : English
Language                    : English
Default                     : No
Forced                      : No

Text #2
ID                          : 4
Format                      : PGS
Muxing mode                 : zlib
Codec ID                    : S_HDMV/PGS
Codec ID/Info               : Picture based subtitle format used on BDs/HD-DVDs
Duration                    : 2 h 13 min
Bit rate                    : 8 272 b/s
Count of elements           : 2244
Stream size                 : 7.88 MiB (0%)
Title                       : Turkish
Language                    : Turkish
Default                     : Yes
Forced                      : No

[Image: vlcsnap-error410-jpg-154aa647379a01efc16...908504.jpg]

[Image: vlcsnap-error656-jpg-d4253aca6d649395e46...b22713.jpg]

[Image: tdown.png]

For Only Vip Members

The Outlaw Josey Wales (1976) Bluray Remux 1080p AVC DTS-HD MA 5.1 VIP
Reply


Possibly Related Threads…
Thread Author Replies Views Last Post
  Taxi Driver (1976) Bluray Remux 1080p AVC DTS-HD MA 5.1 admin 0 794 07-27-2019, 11:18 AM
Last Post: admin
  All the Presidents Men (1976) Bluray Remux 1080p AVC DTS 2.0 admin 0 736 07-06-2019, 05:14 PM
Last Post: admin
  A Star Is Born (1976) Bluray Remux 1080p AVC DTS-HD MA 5.1 admin 0 919 07-03-2019, 06:29 PM
Last Post: admin
  The Eagle Has Landed (1976) Bluray Remux 1080p AVC DTS-HD MA 5.1 admin 0 947 06-15-2019, 06:47 PM
Last Post: admin
  Marathon Man (1976) Bluray Remux 1080p AVC DTS-HD MA 5.1 admin 0 721 06-13-2019, 03:13 PM
Last Post: admin

Forum Jump:


Users browsing this thread: 1 Guest(s)

Powered By MyBB
Theme By Audentio Design
Updated By iAndrew | 2018