Thread Rating:
  • 0 Vote(s) - 0 Average
  • 1
  • 2
  • 3
  • 4
  • 5

[-]
Tags
bluray others avc 1080p the en hd ma 1 remux 2001 dts 5 tr

  The Others (2001) Bluray Remux 1080p TR-EN AVC DTS-HD MA 5.1
#1
The Others (2001) Bluray Remux 1080p TR-EN AVC DTS-HD MA 5.1

[Image: tt0230600.jpg]

[Image: imdb.png]
https://www.imdb.com/title/tt0230600/

[Image: info.png]
The Others 2001 TR EN.mkv
Format                      : Matroska
Format version              : Version 4 / Version 2
File size                   : 24.0 GiB
Duration                    : 1 h 53 min
Overall bit rate mode       : Variable
Overall bit rate            : 30.4 Mb/s
Movie name                  : The Others
Encoded date                : UTC 2015-02-28 21:20:13
Writing application         : mkvmerge v7.6.0 ('Garden of Dreams') 64bit built on Feb  8 2015 13:04:34
Writing library             : libebml v1.3.1 + libmatroska v1.4.2

Video
ID                          : 1
Format                      : AVC
Format/Info                 : Advanced Video Codec
Format profile              : [email protected]
Format settings, CABAC      : Yes
Format settings, ReFrames   : 4 frames
Format settings, GOP        : M=3, N=24
Codec ID                    : V_MPEG4/ISO/AVC
Duration                    : 1 h 49 min
Bit rate mode               : Variable
Bit rate                    : 28.0 Mb/s
Maximum bit rate            : 35.0 Mb/s
Width                       : 1 920 pixels
Height                      : 1 080 pixels
Display aspect ratio        : 16:9
Frame rate mode             : Constant
Frame rate                  : 23.976 (24000/1001) FPS
Standard                    : NTSC
Color space                 : YUV
Chroma subsampling          : 4:2:0
Bit depth                   : 8 bits
Scan type                   : Progressive
Bits/(Pixel*Frame)          : 0.563
Stream size                 : 21.4 GiB (89%)
Title                       : The Others
Language                    : English
Default                     : Yes
Forced                      : No
Color range                 : Limited
Color primaries             : BT.709
Transfer characteristics    : BT.709
Matrix coefficients         : BT.709

Audio #1
ID                          : 2
Format                      : AC-3
Format/Info                 : Audio Coding 3
Format settings, Endianness : Big
Codec ID                    : A_AC3
Duration                    : 1 h 49 min
Bit rate mode               : Constant
Bit rate                    : 640 kb/s
Channel(s)                  : 2 channels
Channel positions           : Front: L R
Sampling rate               : 48.0 kHz
Frame rate                  : 31.250 FPS (1536 spf)
Bit depth                   : 16 bits
Compression mode            : Lossy
Stream size                 : 502 MiB (2%)
Title                       : Turkish
Language                    : Turkish
Service kind                : Complete Main
Default                     : No
Forced                      : No

Audio #2
ID                          : 3
Format                      : DTS
Format/Info                 : Digital Theater Systems
Format profile              : MA / Core
Mode                        : 16
Format settings, Endianness : Big
Codec ID                    : A_DTS
Duration                    : 1 h 53 min
Bit rate mode               : Variable / Constant
Bit rate                    : 2 628 kb/s / 768 kb/s
Channel(s)                  : 6 channels
Channel positions           : Front: L C R, Side: L R, LFE
Sampling rate               : 48.0 kHz
Frame rate                  : 93.750 FPS (512 spf)
Bit depth                   : 24 bits
Compression mode            : Lossless / Lossy
Stream size                 : 2.08 GiB (9%)
Title                       : English
Language                    : English
Default                     : Yes
Forced                      : No

Text #1
ID                          : 4
Format                      : PGS
Muxing mode                 : zlib
Codec ID                    : S_HDMV/PGS
Codec ID/Info               : Picture based subtitle format used on BDs/HD-DVDs
Duration                    : 1 h 39 min
Bit rate                    : 9 756 b/s
Count of elements           : 2348
Stream size                 : 6.92 MiB (0%)
Title                       : Turkish
Language                    : Turkish
Default                     : Yes
Forced                      : No

Text #2
ID                          : 5
Format                      : PGS
Muxing mode                 : zlib
Codec ID                    : S_HDMV/PGS
Codec ID/Info               : Picture based subtitle format used on BDs/HD-DVDs
Duration                    : 1 h 39 min
Bit rate                    : 10.0 kb/s
Count of elements           : 2002
Stream size                 : 7.12 MiB (0%)
Title                       : English
Language                    : English
Default                     : No
Forced                      : No

[Image: vlcsnap-error078-jpg-dbd771e3f5fe8a18386...2b7cc1.jpg]

[Image: vlcsnap-error221-jpg-06b2d4dbfd0be27d4b8...1007a1.jpg]

[Image: tdown.png]

For Only Vip Members

The Others (2001) Bluray Remux 1080p TR-EN AVC DTS-HD MA 5.1 VIP
Reply


Possibly Related Threads…
Thread Author Replies Views Last Post
  The Others 2001 1080p Remux AVC DTS-HD MA 5.1-playBD KAiJu 0 88 11-30-2020, 01:35 PM
Last Post: KAiJu
  Attila 2001 BluRay Remux 1080p AVC DTS-HD MA 5.1-HiFi KAiJu 0 99 10-20-2020, 07:28 AM
Last Post: KAiJu
  The Pledge 2001 1080p Blu-ray Remux AVC FLAC 2.0 - KRaLiMaRKo KAiJu 0 130 10-15-2020, 07:23 AM
Last Post: KAiJu
  Rush Hour 1-2-3 (1998-2001-2007) Bluray REMUX 1080p TR-EN DD 5.1 x264-TURG admin 0 793 02-05-2020, 11:18 AM
Last Post: admin
  Le Pacte des Loups (2001) Bluray Remux 1080p AVC DTS-HD MA 5.1 admin 0 904 08-21-2019, 07:28 PM
Last Post: admin

Forum Jump:


Users browsing this thread: 1 Guest(s)

Powered By MyBB
Theme By Audentio Design
Updated By iAndrew | 2018