Thread Rating:
  • 0 Vote(s) - 0 Average
  • 1
  • 2
  • 3
  • 4
  • 5

[-]
Tags
bluray order avc 1080p the hd ma 1 remux 2001 dts 5

  The Order (2001) Bluray Remux 1080p AVC DTS-HD MA 5.1
#1
The Order (2001) Bluray Remux 1080p AVC DTS-HD MA 5.1

[Image: tt0193364.jpg]

[Image: imdb.png]
https://www.imdb.com/title/tt0193364/

[Image: info.png]
The Order 2001 EN.mkv
Format                      : Matroska
Format version              : Version 4 / Version 2
File size                   : 18.7 GiB
Duration                    : 1 h 29 min
Overall bit rate mode       : Variable
Overall bit rate            : 30.0 Mb/s
Movie name                  : The Order
Encoded date                : UTC 2017-01-11 14:05:02
Writing application         : mkvmerge v9.6.0 ('Slave To Your Mind') 64bit
Writing library             : libebml v1.3.4 + libmatroska v1.4.5

Video
ID                          : 1
Format                      : AVC
Format/Info                 : Advanced Video Codec
Format profile              : [email protected]
Format settings, CABAC      : Yes
Format settings, ReFrames   : 2 frames
Format settings, GOP        : M=1, N=10
Codec ID                    : V_MPEG4/ISO/AVC
Duration                    : 1 h 29 min
Bit rate mode               : Variable
Bit rate                    : 27.9 Mb/s
Width                       : 1 920 pixels
Height                      : 1 080 pixels
Display aspect ratio        : 16:9
Frame rate mode             : Constant
Frame rate                  : 23.976 (24000/1001) FPS
Color space                 : YUV
Chroma subsampling          : 4:2:0
Bit depth                   : 8 bits
Scan type                   : Progressive
Bits/(Pixel*Frame)          : 0.561
Stream size                 : 17.4 GiB (93%)
Title                       : The Order
Language                    : English
Default                     : Yes
Forced                      : No

Audio
ID                          : 2
Format                      : DTS
Format/Info                 : Digital Theater Systems
Format profile              : MA / Core
Mode                        : 16
Format settings, Endianness : Big
Codec ID                    : A_DTS
Duration                    : 1 h 29 min
Bit rate mode               : Variable / Constant
Bit rate                    : 2 048 kb/s / 1 509 kb/s
Channel(s)                  : 6 channels
Channel positions           : Front: L C R, Side: L R, LFE
Sampling rate               : 48.0 kHz
Frame rate                  : 93.750 FPS (512 spf)
Bit depth                   : 16 bits
Compression mode            : Lossless / Lossy
Stream size                 : 1.30 GiB (7%)
Title                       : English
Language                    : English
Default                     : Yes
Forced                      : No

Text #1
ID                          : 3
Format                      : PGS
Muxing mode                 : zlib
Codec ID                    : S_HDMV/PGS
Codec ID/Info               : Picture based subtitle format used on BDs/HD-DVDs
Duration                    : 1 h 25 min
Bit rate                    : 7 334 b/s
Count of elements           : 1868
Stream size                 : 4.48 MiB (0%)
Title                       : English
Language                    : English
Default                     : No
Forced                      : No

Text #2
ID                          : 4
Format                      : PGS
Muxing mode                 : zlib
Codec ID                    : S_HDMV/PGS
Codec ID/Info               : Picture based subtitle format used on BDs/HD-DVDs
Duration                    : 1 h 23 min
Bit rate                    : 10.3 kb/s
Count of elements           : 1440
Stream size                 : 6.19 MiB (0%)
Title                       : Turkish
Language                    : Turkish
Default                     : Yes
Forced                      : No

[Image: vlcsnap-error309-jpg-005decc2098151df9f9...34d5ef.jpg]

[Image: vlcsnap-error725-jpg-700731caf16fb733807...f34b7a.jpg]

[Image: tdown.png]

For Only Vip Members

The Order (2001) Bluray Remux 1080p AVC DTS-HD MA 5.1 VIP
Reply


Possibly Related Threads…
Thread Author Replies Views Last Post
  The Others 2001 1080p Remux AVC DTS-HD MA 5.1-playBD KAiJu 0 88 11-30-2020, 01:35 PM
Last Post: KAiJu
  Attila 2001 BluRay Remux 1080p AVC DTS-HD MA 5.1-HiFi KAiJu 0 99 10-20-2020, 07:28 AM
Last Post: KAiJu
  The Pledge 2001 1080p Blu-ray Remux AVC FLAC 2.0 - KRaLiMaRKo KAiJu 0 130 10-15-2020, 07:23 AM
Last Post: KAiJu
  Rush Hour 1-2-3 (1998-2001-2007) Bluray REMUX 1080p TR-EN DD 5.1 x264-TURG admin 0 793 02-05-2020, 11:18 AM
Last Post: admin
  Le Pacte des Loups (2001) Bluray Remux 1080p AVC DTS-HD MA 5.1 admin 0 904 08-21-2019, 07:28 PM
Last Post: admin

Forum Jump:


Users browsing this thread: 1 Guest(s)

Powered By MyBB
Theme By Audentio Design
Updated By iAndrew | 2018