Thread Rating:
  • 0 Vote(s) - 0 Average
  • 1
  • 2
  • 3
  • 4
  • 5

[-]
Tags
bluray 1974 avc 1080p the night hd ma 2 remux dts porter

 
  The Night Porter (1974) Bluray Remux 1080p AVC DTS-HD MA 2.0
#1
The Night Porter (1974) Bluray Remux 1080p AVC DTS-HD MA 2.0

[Image: tt0071910.jpg]

[Image: imdb.png]
https://www.imdb.com/title/tt0071910/

[Image: info.png]
The Night Porter aka Il Portiere di Notte 1974 EN.mkv
Format                      : Matroska
Format version              : Version 4 / Version 2
File size                   : 18.9 GiB
Duration                    : 1 h 58 min
Overall bit rate mode       : Variable
Overall bit rate            : 22.9 Mb/s
Movie name                  : The Night Porter aka Il Portiere di Notte
Encoded date                : UTC 2017-11-15 09:15:55
Writing application         : mkvmerge v17.0.0 ('Be Ur Friend') 64-bit
Writing library             : libebml v1.3.5 + libmatroska v1.4.8

Video
ID                          : 1
Format                      : AVC
Format/Info                 : Advanced Video Codec
Format profile              : [email protected]
Format settings, CABAC      : Yes
Format settings, ReFrames   : 2 frames
Codec ID                    : V_MPEG4/ISO/AVC
Duration                    : 1 h 58 min
Bit rate mode               : Variable
Bit rate                    : 22.0 Mb/s
Width                       : 1 920 pixels
Height                      : 1 080 pixels
Display aspect ratio        : 16:9
Frame rate mode             : Constant
Frame rate                  : 23.976 (24000/1001) FPS
Color space                 : YUV
Chroma subsampling          : 4:2:0
Bit depth                   : 8 bits
Scan type                   : Progressive
Bits/(Pixel*Frame)          : 0.442
Stream size                 : 18.1 GiB (96%)
Title                       : The Night Porter aka Il Portiere di Notte
Language                    : English
Default                     : Yes
Forced                      : No

Audio
ID                          : 2
Format                      : DTS
Format/Info                 : Digital Theater Systems
Format profile              : MA / Core
Mode                        : 16
Format settings, Endianness : Big
Codec ID                    : A_DTS
Duration                    : 1 h 58 min
Bit rate mode               : Variable / Constant
Bit rate                    : 873 kb/s / 768 kb/s
Channel(s)                  : 2 channels
Channel positions           : Front: L R
Sampling rate               : 48.0 kHz
Frame rate                  : 93.750 FPS (512 spf)
Bit depth                   : 16 bits
Compression mode            : Lossless / Lossy
Stream size                 : 737 MiB (4%)
Title                       : English
Language                    : English
Default                     : Yes
Forced                      : No

Text
ID                          : 3
Format                      : PGS
Muxing mode                 : zlib
Codec ID                    : S_HDMV/PGS
Codec ID/Info               : Picture based subtitle format used on BDs/HD-DVDs
Duration                    : 1 h 49 min
Bit rate                    : 15.4 kb/s
Count of elements           : 1440
Stream size                 : 12.0 MiB (0%)
Title                       : Turkish
Language                    : Turkish
Default                     : Yes
Forced                      : No

[Image: vlcsnap-error720-jpg-a368c7f21c5d3209b53...8ab0ad.jpg]

[Image: vlcsnap-error894-jpg-e6e7cf5ad486f1200b3...e2f064.jpg]

[Image: tdown.png]

For Only Vip Members

The Night Porter (1974) Bluray Remux 1080p AVC DTS-HD MA 2.0 VIP
Reply


Possibly Related Threads…
Thread Author Replies Views Last Post
  Night After Night 1932 1080p Blu-ray Remux AVC FLAC 2.0 - KRaLiMaRKo KAiJu 0 16 05-15-2022, 08:10 AM
Last Post: KAiJu
  Massacre Mafia Style AKA Like Father Like Son 1974 1080p BluRay Remux AVC FLAC 1 0-BD KAiJu 0 20 05-10-2022, 09:17 AM
Last Post: KAiJu
  Fly Me The French Way 1974 1080p Blu-ray Remux AVC DTS-HD MA 2 0-HDT KAiJu 0 28 04-19-2022, 06:42 AM
Last Post: KAiJu
  One Night with the King 2006 1080p BluRay REMUX AVC DTS-HD MA 5.1-EPSiLON KAiJu 0 36 04-10-2022, 10:53 PM
Last Post: KAiJu
  Hell Night 1981 1080p Blu-ray Remux AVC DTS-HD MA 2.0 - KRaLiMaRKo KAiJu 0 41 04-05-2022, 06:37 AM
Last Post: KAiJu

Forum Jump:


Users browsing this thread: 1 Guest(s)

Powered By MyBB
RSS RSS Syndication
Updated By iAndrew | 2022