Thread Rating:
  • 0 Vote(s) - 0 Average
  • 1
  • 2
  • 3
  • 4
  • 5

[-]
Tags
dd naked bluray island avc 1960 1080p the 1 remux

  The Naked Island (1960) Bluray Remux 1080p AVC DD 1.0
#1
The Naked Island (1960) Bluray Remux 1080p AVC DD 1.0

[Image: tt0056049.jpg]

[Image: imdb.png]
https://www.imdb.com/title/tt0056049/

[Image: info.png]
The Naked Island aka Hadaka No Shima 1960 JP.mkv
Format                      : Matroska
Format version              : Version 4 / Version 2
File size                   : 23.9 GiB
Duration                    : 1 h 36 min
Overall bit rate mode       : Variable
Overall bit rate            : 35.5 Mb/s
Movie name                  : The Naked Island aka Hadaka No Shima
Encoded date                : UTC 2017-09-12 19:45:58
Writing application         : mkvmerge v15.0.0 ('Duel with the Devil') 64-bit
Writing library             : libebml v1.3.5 + libmatroska v1.4.5

Video
ID                          : 1
Format                      : AVC
Format/Info                 : Advanced Video Codec
Format profile              : [email protected]
Format settings             : CABAC / 4 Ref Frames
Format settings, CABAC      : Yes
Format settings, ReFrames   : 4 frames
Codec ID                    : V_MPEG4/ISO/AVC
Duration                    : 1 h 36 min
Bit rate mode               : Variable
Bit rate                    : 35.0 Mb/s
Maximum bit rate            : 37.0 Mb/s
Width                       : 1 920 pixels
Height                      : 1 080 pixels
Display aspect ratio        : 16:9
Frame rate mode             : Constant
Frame rate                  : 23.976 (24000/1001) FPS
Color space                 : YUV
Chroma subsampling          : 4:2:0
Bit depth                   : 8 bits
Scan type                   : Progressive
Bits/(Pixel*Frame)          : 0.704
Stream size                 : 23.6 GiB (99%)
Title                       : The Naked Island aka Hadaka No Shima
Language                    : Japanese
Default                     : Yes
Forced                      : No

Audio
ID                          : 2
Format                      : AC-3
Format/Info                 : Audio Coding 3
Codec ID                    : A_AC3
Duration                    : 1 h 36 min
Bit rate mode               : Constant
Bit rate                    : 448 kb/s
Channel(s)                  : 1 channel
Channel positions           : Front: C
Sampling rate               : 48.0 kHz
Frame rate                  : 31.250 FPS (1536 SPF)
Bit depth                   : 16 bits
Compression mode            : Lossy
Stream size                 : 310 MiB (1%)
Title                       : Japanese
Language                    : Japanese
Service kind                : Complete Main
Default                     : Yes
Forced                      : No

Text #1
ID                          : 3
Format                      : PGS
Muxing mode                 : zlib
Codec ID                    : S_HDMV/PGS
Codec ID/Info               : Picture based subtitle format used on BDs/HD-DVDs
Duration                    : 1 h 35 min
Bit rate                    : 1 326 b/s
Count of elements           : 86
Stream size                 : 932 KiB (0%)
Title                       : English
Language                    : English
Default                     : No
Forced                      : No

Text #2
ID                          : 4
Format                      : PGS
Muxing mode                 : zlib
Codec ID                    : S_HDMV/PGS
Codec ID/Info               : Picture based subtitle format used on BDs/HD-DVDs
Duration                    : 1 h 25 min
Bit rate                    : 920 b/s
Count of elements           : 64
Stream size                 : 577 KiB (0%)
Title                       : Turkish
Language                    : Turkish
Default                     : Yes
Forced                      : No

[Image: 40894866693_6fd95799f5_b.jpg]

[Image: 47071942334_e911b656f7_b.jpg]

[Image: tdown.png]

For Only Vip Members

The Naked Island (1960) Bluray Remux 1080p AVC DD 1.0 VIP
Reply


Possibly Related Threads…
Thread Author Replies Views Last Post
  The King of Staten Island (2020) Bluray REMUX 1080p EN-TR AVC Atmos 7.1-TURG AbrA 0 113 11-07-2020, 08:08 PM
Last Post: AbrA
  The Island (2005) Bluray REMUX 1080p VC-1 DD 5.1-EiMi AbrA 0 78 10-23-2020, 07:47 PM
Last Post: AbrA
  Tremors - Shrieker Island 2020 1080p Blu-ray Remux AVC DTS-HD MA 5.1 - KRaLiMaRKo KAiJu 0 107 10-20-2020, 07:19 AM
Last Post: KAiJu
  Psycho (1960) Bluray REMUX 1080p VC-1 DTS 5.1-HUSe AbrA 0 413 05-29-2020, 03:48 PM
Last Post: AbrA
  Naked Weapon (2002) Bluray Remux 1080p AVC TrueHD 7.1 admin 0 729 08-23-2019, 09:21 AM
Last Post: admin

Forum Jump:


Users browsing this thread: 1 Guest(s)

Powered By MyBB
Theme By Audentio Design
Updated By iAndrew | 2018