Thread Rating:
  • 0 Vote(s) - 0 Average
  • 1
  • 2
  • 3
  • 4
  • 5

[-]
Tags
bluray avc 1080p the hd ma mechanic 1 1972 remux dts

 
  The Mechanic (1972) Bluray Remux 1080p AVC DTS-HD MA 1.0
#1
The Mechanic (1972) Bluray Remux 1080p AVC DTS-HD MA 1.0

[Image: tt0068931.jpg]

[Image: imdb.png]
https://www.imdb.com/title/tt0068931/

[Image: info.png]
The Mechanic 1972 EN.mkv
Format                      : Matroska
Format version              : Version 4 / Version 2
File size                   : 25.1 GiB
Duration                    : 1 h 39 min
Overall bit rate mode       : Variable
Overall bit rate            : 36.0 Mb/s
Encoded date                : UTC 2014-09-03 18:28:33
Writing application         : mkvmerge v7.1.0 ('Good Love') 64bit built on Jul 27 2014 13:06:55
Writing library             : libebml v1.3.0 + libmatroska v1.4.1

Video
ID                          : 1
Format                      : AVC
Format/Info                 : Advanced Video Codec
Format profile              : [email protected]
Format settings, CABAC      : Yes
Format settings, ReFrames   : 4 frames
Codec ID                    : V_MPEG4/ISO/AVC
Duration                    : 1 h 39 min
Bit rate mode               : Variable
Bit rate                    : 34.9 Mb/s
Maximum bit rate            : 38.0 Mb/s
Width                       : 1 920 pixels
Height                      : 1 080 pixels
Display aspect ratio        : 16:9
Frame rate mode             : Constant
Frame rate                  : 23.976 (24000/1001) FPS
Color space                 : YUV
Chroma subsampling          : 4:2:0
Bit depth                   : 8 bits
Scan type                   : Progressive
Bits/(Pixel*Frame)          : 0.702
Stream size                 : 24.3 GiB (97%)
Title                       : The Mechanic
Language                    : English
Default                     : Yes
Forced                      : No

Audio
ID                          : 2
Format                      : DTS
Format/Info                 : Digital Theater Systems
Format profile              : MA / Core
Mode                        : 16
Format settings, Endianness : Big
Codec ID                    : A_DTS
Duration                    : 1 h 39 min
Bit rate mode               : Variable / Constant
Bit rate                    : 1 106 kb/s / 768 kb/s
Channel(s)                  : 1 channel
Channel positions           : Front: C
Sampling rate               : 48.0 kHz
Frame rate                  : 93.750 FPS (512 spf)
Bit depth                   : 24 bits
Compression mode            : Lossless / Lossy
Stream size                 : 790 MiB (3%)
Title                       : English
Language                    : English
Default                     : Yes
Forced                      : No

Text #1
ID                          : 3
Format                      : PGS
Muxing mode                 : zlib
Codec ID                    : S_HDMV/PGS
Codec ID/Info               : Picture based subtitle format used on BDs/HD-DVDs
Duration                    : 1 h 37 min
Bit rate                    : 7 258 b/s
Count of elements           : 1889
Stream size                 : 5.07 MiB (0%)
Title                       : English
Language                    : English
Default                     : No
Forced                      : No

Text #2
ID                          : 4
Format                      : PGS
Muxing mode                 : zlib
Codec ID                    : S_HDMV/PGS
Codec ID/Info               : Picture based subtitle format used on BDs/HD-DVDs
Duration                    : 1 h 37 min
Bit rate                    : 8 119 b/s
Count of elements           : 1548
Stream size                 : 5.67 MiB (0%)
Title                       : Turkish
Language                    : Turkish
Default                     : Yes
Forced                      : No

[Image: vlcsnap-error311-jpg-6f5547a6c3808ba5977...d87c9c.jpg]

[Image: vlcsnap-error666-jpg-5c9993ecbef3ffdf3e3...f136eb.jpg]

[Image: tdown.png]

For Only Vip Members

The Mechanic (1972) Bluray Remux 1080p AVC DTS-HD MA 1.0 VIP
Reply


Possibly Related Threads…
Thread Author Replies Views Last Post
  Red Psalm 1972 1080p BluRay REMUX AVC DTS-HD MA 1 0-BLURANiUM KAiJu 0 15 05-16-2022, 09:32 AM
Last Post: KAiJu
  All Coppers Are 1972 1080p Blu-ray Remux AVC LPCM 2 0-HDT KAiJu 0 16 05-08-2022, 07:26 AM
Last Post: KAiJu
  The Murder Mansion 1972 1080p Blu-ray Remux AVC DTS-HD MA 2 0-HDT KAiJu 0 48 03-19-2022, 01:22 PM
Last Post: KAiJu
  Tragic Ceremony 1972 1080p Blu-ray Remux AVC DTS-HD MA 1 0-HDT KAiJu 0 36 03-15-2022, 01:17 PM
Last Post: KAiJu
  Children Shouldnt Play with Dead Things 1972 1080p BluRay REMUX VC-1 DTS-HD MA 2 0-EP KAiJu 0 59 02-23-2022, 06:39 AM
Last Post: KAiJu

Forum Jump:


Users browsing this thread: 1 Guest(s)

Powered By MyBB
RSS RSS Syndication
Updated By iAndrew | 2022