Thread Rating:
  • 0 Vote(s) - 0 Average
  • 1
  • 2
  • 3
  • 4
  • 5

[-]
Tags
bluray avc 1080p the 1968 bug hd love ma 1 remux dts 5

  The Love Bug (1968) Bluray Remux 1080p AVC DTS-HD MA 5.1
#1
The Love Bug (1968) Bluray Remux 1080p AVC DTS-HD MA 5.1

[Image: tt0064603.jpg]

[Image: imdb.png]
https://www.imdb.com/title/tt0064603/

[Image: info.png]
The Love Bug 1968 EN.mkv
Format                      : Matroska
Format version              : Version 4 / Version 2
File size                   : 25.0 GiB
Duration                    : 1 h 47 min
Overall bit rate mode       : Variable
Overall bit rate            : 33.2 Mb/s
Movie name                  : The Love Bug
Encoded date                : UTC 2015-10-14 21:54:35
Writing application         : mkvmerge v8.3.0 ('Over the Horizon') 64bit
Writing library             : libebml v1.3.1 + libmatroska v1.4.2

Video
ID                          : 1
Format                      : AVC
Format/Info                 : Advanced Video Codec
Format profile              : [email protected]
Format settings, CABAC      : Yes
Format settings, ReFrames   : 4 frames
Codec ID                    : V_MPEG4/ISO/AVC
Duration                    : 1 h 47 min
Bit rate mode               : Variable
Bit rate                    : 29.7 Mb/s
Maximum bit rate            : 32.0 Mb/s
Width                       : 1 920 pixels
Height                      : 1 080 pixels
Display aspect ratio        : 16:9
Frame rate mode             : Constant
Frame rate                  : 23.976 (24000/1001) FPS
Color space                 : YUV
Chroma subsampling          : 4:2:0
Bit depth                   : 8 bits
Scan type                   : Progressive
Bits/(Pixel*Frame)          : 0.598
Stream size                 : 22.4 GiB (89%)
Title                       : The Love Bug
Language                    : English
Default                     : Yes
Forced                      : No

Audio
ID                          : 2
Format                      : DTS
Format/Info                 : Digital Theater Systems
Format profile              : MA / Core
Mode                        : 16
Format settings, Endianness : Big
Codec ID                    : A_DTS
Duration                    : 1 h 47 min
Bit rate mode               : Variable / Constant
Bit rate                    : 3 455 kb/s / 1 509 kb/s
Channel(s)                  : 6 channels
Channel positions           : Front: L C R, Side: L R, LFE
Sampling rate               : 48.0 kHz
Frame rate                  : 93.750 FPS (512 spf)
Bit depth                   : 24 bits
Compression mode            : Lossless / Lossy
Stream size                 : 2.60 GiB (10%)
Title                       : English
Language                    : English
Default                     : Yes
Forced                      : No

Text #1
ID                          : 3
Format                      : PGS
Muxing mode                 : zlib
Codec ID                    : S_HDMV/PGS
Codec ID/Info               : Picture based subtitle format used on BDs/HD-DVDs
Duration                    : 1 h 47 min
Bit rate                    : 33.3 kb/s
Count of elements           : 3352
Stream size                 : 25.5 MiB (0%)
Title                       : English
Language                    : English
Default                     : No
Forced                      : No

Text #2
ID                          : 4
Format                      : PGS
Muxing mode                 : zlib
Codec ID                    : S_HDMV/PGS
Codec ID/Info               : Picture based subtitle format used on BDs/HD-DVDs
Duration                    : 1 h 43 min
Bit rate                    : 13.0 kb/s
Count of elements           : 2352
Stream size                 : 9.66 MiB (0%)
Title                       : Turkish
Language                    : Turkish
Default                     : Yes
Forced                      : No

[Image: vlcsnap-error399-jpg-9154fe4c4cbb0edf398...cc526b.jpg]

[Image: vlcsnap-error788-jpg-41c277432a4405627b9...559bd7.jpg]

[Image: tdown.png]

For Only Vip Members

The Love Bug (1968) Bluray Remux 1080p AVC DTS-HD MA 5.1 VIP
Reply


Possibly Related Threads…
Thread Author Replies Views Last Post
  Bullitt (1968) Bluray Remux 1080p VC-1 DD 2.0 admin 1 875 05-22-2020, 04:51 PM
Last Post: Ringerman
  Love Me If You Dare (2003) Bluray REMUX 1080p FR-TR AVC DD 5.1-HuSe admin 0 710 03-27-2020, 08:51 PM
Last Post: admin
  All the Boys Love Mandy Lane (2006) Bluray Remux 1080p AVC DTS-HD MA 5.1 admin 0 959 08-07-2019, 05:56 PM
Last Post: admin
  Funny Girl (1968) Bluray Remux 1080p AVC DTS-HD MA 5.1 admin 0 772 06-21-2019, 04:38 PM
Last Post: admin
  Once Upon a Time in the West (1968) Bluray Remux 1080p AVC DTS-HD MA 5.1 admin 0 1,061 06-13-2019, 04:12 PM
Last Post: admin

Forum Jump:


Users browsing this thread: 1 Guest(s)

Powered By MyBB
Theme By Audentio Design
Updated By iAndrew | 2018