Thread Rating:
  • 0 Vote(s) - 0 Average
  • 1
  • 2
  • 3
  • 4
  • 5

[-]
Tags
mermaid bluray 1989 avc 1080p 7 the little hd ma 1 remux dts

  The Little Mermaid (1989) Bluray Remux 1080p AVC DTS-HD MA 7.1
#1
The Little Mermaid (1989) Bluray Remux 1080p AVC DTS-HD MA 7.1

[Image: tt0097757.jpg]

[Image: imdb.png]
https://www.imdb.com/title/tt0097757/

[Image: info.png]
The Little Mermaid 1989 EN.mkv
Format                      : Matroska
Format version              : Version 4 / Version 2
File size                   : 19.2 GiB
Duration                    : 1 h 22 min
Overall bit rate mode       : Variable
Overall bit rate            : 33.2 Mb/s
Movie name                  : The Little Mermaid
Encoded date                : UTC 2018-02-20 21:14:02
Writing application         : mkvmerge v20.0.0 ('I Am The Sun') 64-bit
Writing library             : libebml v1.3.5 + libmatroska v1.4.8

Video
ID                          : 1
Format                      : AVC
Format/Info                 : Advanced Video Codec
Format profile              : [email protected]
Format settings             : CABAC / 4 Ref Frames
Format settings, CABAC      : Yes
Format settings, ReFrames   : 4 frames
Format settings, GOP        : M=1, N=12
Codec ID                    : V_MPEG4/ISO/AVC
Duration                    : 1 h 22 min
Bit rate mode               : Variable
Bit rate                    : 27.4 Mb/s
Maximum bit rate            : 30.5 Mb/s
Width                       : 1 920 pixels
Height                      : 1 080 pixels
Display aspect ratio        : 16:9
Frame rate mode             : Constant
Frame rate                  : 23.976 (24000/1001) FPS
Color space                 : YUV
Chroma subsampling          : 4:2:0
Bit depth                   : 8 bits
Scan type                   : Progressive
Bits/(Pixel*Frame)          : 0.551
Stream size                 : 15.9 GiB (83%)
Title                       : The Little Mermaid
Language                    : English
Default                     : Yes
Forced                      : No

Audio
ID                          : 2
Format                      : DTS
Format/Info                 : Digital Theater Systems
Format profile              : MA / Core
Codec ID                    : A_DTS
Duration                    : 1 h 22 min
Bit rate mode               : Variable / Constant
Bit rate                    : 5 728 kb/s / 1 509 kb/s
Channel(s)                  : 8 channels / 6 channels
Channel positions           : Front: L C R, Side: L R, Back: L R, LFE / Front: L C R, Side: L R, LFE
Sampling rate               : 48.0 kHz
Frame rate                  : 93.750 FPS (512 SPF)
Bit depth                   : 24 bits
Compression mode            : Lossless / Lossy
Stream size                 : 3.31 GiB (17%)
Title                       : English
Language                    : English
Default                     : Yes
Forced                      : No

Text #1
ID                          : 3
Format                      : PGS
Muxing mode                 : zlib
Codec ID                    : S_HDMV/PGS
Codec ID/Info               : Picture based subtitle format used on BDs/HD-DVDs
Duration                    : 1 h 20 min
Bit rate                    : 41.8 kb/s
Count of elements           : 2432
Stream size                 : 24.1 MiB (0%)
Title                       : English
Language                    : English
Default                     : No
Forced                      : No

Text #2
ID                          : 4
Format                      : PGS
Muxing mode                 : zlib
Codec ID                    : S_HDMV/PGS
Codec ID/Info               : Picture based subtitle format used on BDs/HD-DVDs
Duration                    : 1 h 16 min
Bit rate                    : 26.6 kb/s
Count of elements           : 1832
Stream size                 : 14.6 MiB (0%)
Title                       : Turkish
Language                    : Turkish
Default                     : Yes
Forced                      : No

[Image: 7vrdz1.jpg]

[Image: sL5QEZ.jpg]

[Image: tdown.png]

For Only Vip Members

The Little Mermaid (1989) Bluray Remux 1080p AVC DTS-HD MA 7.1 VIP
Reply


Possibly Related Threads…
Thread Author Replies Views Last Post
  Born on the Fourth of July (1989) Bluray Remux 1080p VC-1 DTS-HD MA 5.1 admin 0 462 08-18-2019, 07:46 PM
Last Post: admin
  Blind Fury (1989) Bluray Remux 1080p AVC DTS-HD MA 2.0 admin 0 409 08-15-2019, 07:33 AM
Last Post: admin
  Shocker (1989) Bluray Remux 1080p AVC DTS-HD MA 5.1 admin 0 429 07-22-2019, 12:38 PM
Last Post: admin
  K-9 (1989-2002) Bluray Remux 1080p AVC DTS-HD MA 2.0 admin 0 425 07-16-2019, 01:14 PM
Last Post: admin
  The War of the Roses (1989) Bluray Remux 1080p AVC DTS-HD MA 5.1 admin 0 474 07-14-2019, 08:33 AM
Last Post: admin

Forum Jump:


Users browsing this thread: 1 Guest(s)

Powered By MyBB
Theme By Audentio Design
Updated By iAndrew | 2018