Thread Rating:
  • 0 Vote(s) - 0 Average
  • 1
  • 2
  • 3
  • 4
  • 5

[-]
Tags
1994 bluray lion x264 1080p the triology prodji king 2004 dts

  The Lion King (1994-2004) Triology BluRay 1080p DTS x264-PRoDJi
#1
The Lion King (1994-2004) Triology BluRay 1080p DTS x264-PRoDJi

[Image: lion.king.jpg]

[Image: imdb.png]
https://www.imdb.com/title/tt0110357/
https://www.imdb.com/title/tt0120131/
https://www.imdb.com/title/tt0318403/

[Image: info.png]
Format : Matroska
Format version : Version 4
File size : 7.20 GiB
Duration : 1 h 20 min
Overall bit rate : 12.8 Mb/s
Encoded date : UTC 2016-10-10 12:34:01
Writing application : mkvmerge v7.8.0 ('River Man') 32bit built on Mar 27 2015 16:18:02
Writing library : libebml v1.3.1 + libmatroska v1.4.2

Video
ID : 1
Format : AVC
Format/Info : Advanced Video Codec
Format profile : [email protected]
Format settings : CABAC / 3 Ref Frames
Format settings, CABAC : Yes
Format settings, RefFrames : 3 frames
Codec ID : V_MPEG4/ISO/AVC
Duration : 1 h 20 min
Bit rate : 10.6 Mb/s
Width : 1 920 pixels
Height : 1 080 pixels
Display aspect ratio : 16:9
Frame rate mode : Constant
Frame rate : 23.976 (24000/1001) FPS
Color space : YUV
Chroma subsampling : 4:2:0
Bit depth : 8 bits
Scan type : Progressive
Bits/(Pixel*Frame) : 0.213
Stream size : 5.99 GiB (83%)
Title : @10600 Kbps High Profiles @L4.1
Writing library : x264 core 148 r2638 7599210
Encoding settings : cabac=1 / ref=4 / deblock=1:-1:-1 / analyse=0x3:0x113 / me=umh / subme=9 / psy=1 / psy_rd=1.00:0.00 / mixed_ref=1 / me_range=24 / chroma_me=1 / trellis=2 / 8x8dct=1 / cqm=0 / deadzone=21,11 / fast_pskip=1 / chroma_qp_offset=-5 / threads=6 / lookahead_threads=1 / sliced_threads=0 / nr=0 / decimate=0 / interlaced=0 / bluray_compat=0 / constrained_intra=0 / bframes=5 / b_pyramid=1 / b_adapt=2 / b_bias=2 / direct=3 / weightb=1 / open_gop=0 / weightp=2 / keyint=230 / keyint_min=22 / scenecut=40 / intra_refresh=0 / rc_lookahead=45 / rc=2pass / mbtree=1 / bitrate=10605 / ratetol=1.0 / qcomp=0.60 / qpmin=10 / qpmax=41 / qpstep=4 / cplxblur=20.0 / qblur=0.5 / ip_ratio=1.30 / aq=1:1.00
Language : English
Default : Yes
Forced : No

Audio #1
ID : 2
Format : DTS
Format/Info : Digital Theater Systems
Codec ID : A_DTS
Duration : 1 h 20 min
Bit rate mode : Constant
Bit rate : 1 509 kb/s
Channel(s) : 6 channels
Channel layout : C L R Ls Rs LFE
Sampling rate : 48.0 kHz
Frame rate : 93.750 FPS (512 SPF)
Bit depth : 24 bits
Compression mode : Lossy
Stream size : 872 MiB (12%)
Title : [email protected] 6 chnls
Language : English
Default : Yes
Forced : No

Audio #2
ID : 3
Format : AC-3
Format/Info : Audio Coding 3
Commercial name : Dolby Digital
Codec ID : A_AC3
Duration : 1 h 20 min
Bit rate mode : Constant
Bit rate : 640 kb/s
Channel(s) : 6 channels
Channel layout : L R C LFE Ls Rs
Sampling rate : 48.0 kHz
Frame rate : 31.250 FPS (1536 SPF)
Bit depth : 16 bits
Compression mode : Lossy
Stream size : 370 MiB (5%)
Title : [email protected] 6 chnls
Language : Turkish
Service kind : Complete Main
Default : No
Forced : No

Text #1
ID : 4
Format : UTF-8
Codec ID : S_TEXT/UTF8
Codec ID/Info : UTF-8 Plain Text
Duration : 1 h 20 min
Bit rate : 61 b/s
Count of elements : 1123
Stream size : 36.0 KiB (0%)
Language : English
Default : Yes
Forced : No

Text #2
ID : 5
Format : UTF-8
Codec ID : S_TEXT/UTF8
Codec ID/Info : UTF-8 Plain Text
Duration : 1 h 14 min
Bit rate : 38 b/s
Count of elements : 681
Stream size : 21.3 KiB (0%)
Language : Turkish
Default : No
Forced : No

Menu
00:00:00.000 : en:00:00:00.000
00:03:33.130 : en:00:03:33.130
00:05:39.005 : en:00:05:39.005
00:09:16.055 : en:00:09:16.055
00:14:21.069 : en:00:14:21.069
00:19:09.690 : en:00:19:09.690
00:21:48.182 : en:00:21:48.182
00:26:53.904 : en:00:26:53.904
00:31:02.944 : en:00:31:02.944
00:33:00.478 : en:00:33:00.478
00:39:56.269 : en:00:39:56.269
00:44:47.101 : en:00:44:47.101
00:45:40.446 : en:00:45:40.446
00:50:37.952 : en:00:50:37.952
00:56:15.831 : en:00:56:15.831
00:59:51.546 : en:00:59:51.546
01:01:24.389 : en:01:01:24.389
01:05:01.439 : en:01:05:01.439
01:12:54.120 : en:01:12:54.120
01:15:20.516 : en:01:15:20.516

[Image: tdown.png]

For Only Vip Members
Reply


Possibly Related Threads...
Thread Author Replies Views Last Post
  Batman (1989) Bluray 1080p DUAL DD5.1 x264-fidelio admin 0 16 Yesterday, 09:28 PM
Last Post: admin
  I Spit on Your Grave Deja Vu (2019) Bluray 1080p x264-EVO admin 0 49 04-24-2019, 02:11 PM
Last Post: admin
  How to Train Your Dragon The Hidden World (2019) Bluray 1080p DUAL DD5.1 x264-CHD admin 0 51 04-24-2019, 12:35 PM
Last Post: admin
  Holmes and Watson (2018) Bluray 1080p DUAL DD5.1 x264-BdC admin 0 52 04-24-2019, 10:24 AM
Last Post: admin
  The Mule (2018) Bluray 1080p DUAL AC3 x264-BdC admin 0 75 04-23-2019, 08:27 PM
Last Post: admin

Forum Jump:


Users browsing this thread: 1 Guest(s)

Powered By MyBB
Theme By Audentio Design
Updated By iAndrew | 2018