Thread Rating:
  • 0 Vote(s) - 0 Average
  • 1
  • 2
  • 3
  • 4
  • 5

[-]
Tags
bluray line avc 1080p the en hd ma 1 remux dts 5 tr 2009

 
  The Line (2009) Bluray Remux 1080p TR-EN AVC DTS-HD MA 5.1
#1
The Line (2009) Bluray Remux 1080p TR-EN AVC DTS-HD MA 5.1

[Image: tt1111918.jpg]

[Image: imdb.png]
https://www.imdb.com/title/tt1111918/

[Image: info.png]
The Line 2009 TR EN.mkv
Format                      : Matroska
Format version              : Version 4 / Version 2
File size                   : 18.2 GiB
Duration                    : 1 h 34 min
Overall bit rate mode       : Variable
Overall bit rate            : 27.5 Mb/s
Encoded date                : UTC 2014-06-12 23:02:44
Writing application         : mkvmerge v7.0.0 ('Where We Going') 64bit built on Jun  9 2014 15:16:27
Writing library             : libebml v1.3.0 + libmatroska v1.4.1

Video
ID                          : 1
Format                      : AVC
Format/Info                 : Advanced Video Codec
Format profile              : [email protected]
Format settings, CABAC      : Yes
Format settings, ReFrames   : 4 frames
Codec ID                    : V_MPEG4/ISO/AVC
Duration                    : 1 h 34 min
Bit rate mode               : Variable
Bit rate                    : 23.0 Mb/s
Maximum bit rate            : 35.0 Mb/s
Width                       : 1 920 pixels
Height                      : 1 080 pixels
Display aspect ratio        : 16:9
Frame rate mode             : Constant
Frame rate                  : 23.976 (24000/1001) FPS
Standard                    : NTSC
Color space                 : YUV
Chroma subsampling          : 4:2:0
Bit depth                   : 8 bits
Scan type                   : Progressive
Bits/(Pixel*Frame)          : 0.462
Stream size                 : 15.2 GiB (83%)
Title                       : The Line
Language                    : English
Default                     : Yes
Forced                      : No
Color range                 : Limited
Color primaries             : BT.709
Transfer characteristics    : BT.709
Matrix coefficients         : BT.709

Audio #1
ID                          : 2
Format                      : DTS
Format/Info                 : Digital Theater Systems
Format profile              : MA / Core
Mode                        : 16
Format settings, Endianness : Big
Codec ID                    : A_DTS
Duration                    : 1 h 34 min
Bit rate mode               : Variable / Constant
Bit rate                    : 1 994 kb/s / 1 509 kb/s
Channel(s)                  : 6 channels
Channel positions           : Front: L C R, Side: L R, LFE
Sampling rate               : 48.0 kHz
Frame rate                  : 93.750 FPS (512 spf)
Bit depth                   : 16 bits
Compression mode            : Lossless / Lossy
Stream size                 : 1.32 GiB (7%)
Title                       : Turkish
Language                    : Turkish
Default                     : No
Forced                      : No

Audio #2
ID                          : 3
Format                      : DTS
Format/Info                 : Digital Theater Systems
Format profile              : MA / Core
Mode                        : 16
Format settings, Endianness : Big
Codec ID                    : A_DTS
Duration                    : 1 h 34 min
Bit rate mode               : Variable / Constant
Bit rate                    : 2 533 kb/s / 1 509 kb/s
Channel(s)                  : 6 channels
Channel positions           : Front: L C R, Side: L R, LFE
Sampling rate               : 48.0 kHz
Frame rate                  : 93.750 FPS (512 spf)
Bit depth                   : 16 bits
Compression mode            : Lossless / Lossy
Stream size                 : 1.68 GiB (9%)
Title                       : English
Language                    : English
Default                     : Yes
Forced                      : No

Text #1
ID                          : 4
Format                      : PGS
Muxing mode                 : zlib
Codec ID                    : S_HDMV/PGS
Codec ID/Info               : Picture based subtitle format used on BDs/HD-DVDs
Duration                    : 1 h 28 min
Bit rate                    : 8 196 b/s
Count of elements           : 1398
Stream size                 : 5.16 MiB (0%)
Title                       : Turkish
Language                    : Turkish
Default                     : Yes
Forced                      : No

Text #2
ID                          : 5
Format                      : PGS
Muxing mode                 : zlib
Codec ID                    : S_HDMV/PGS
Codec ID/Info               : Picture based subtitle format used on BDs/HD-DVDs
Duration                    : 1 h 27 min
Bit rate                    : 8 044 b/s
Count of elements           : 1123
Stream size                 : 5.03 MiB (0%)
Title                       : English
Language                    : English
Default                     : No
Forced                      : No

[Image: vlcsnap-error145-jpg-ef9aa3205aed6ca4400...26c2f6.jpg]

[Image: vlcsnap-error768-jpg-5cdab721abce2fc1bc9...518f74.jpg]

[Image: tdown.png]

For Only Vip Members

The Line (2009) Bluray Remux 1080p TR-EN AVC DTS-HD MA 5.1 VIP
Reply


Possibly Related Threads…
Thread Author Replies Views Last Post
  The Perfect Sleep 2009 1080p Blu-ray Remux AVC DTS-HD MA 2 0-HDT KAiJu 0 32 05-03-2022, 07:49 AM
Last Post: KAiJu
  Inside Ring 2009 1080p Blu-ray Remux AVC DTS-HD MA 5.1-HDT KAiJu 0 35 04-07-2022, 09:27 AM
Last Post: KAiJu
  Staten Island 2009 1080p Blu-ray Remux AVC DTS-HD MA 5.1-HDT KAiJu 0 41 04-03-2022, 10:09 AM
Last Post: KAiJu
  The Thin Red Line (1998) Bluray REMUX 1080p AVC DTS-HD MA 5.1-HUS AbrA 0 50 03-15-2022, 05:08 PM
Last Post: AbrA
  Ninja 2009 1080p Blu-ray Remux VC-1 DTS-HD HR 5.1 - KRaLiMaRKo KAiJu 0 67 03-02-2022, 07:29 AM
Last Post: KAiJu

Forum Jump:


Users browsing this thread: 1 Guest(s)

Powered By MyBB
RSS RSS Syndication
Updated By iAndrew | 2022