Thread Rating:
  • 0 Vote(s) - 0 Average
  • 1
  • 2
  • 3
  • 4
  • 5

[-]
Tags
bluray jungle avc 1080p book 7 the 2003 1967 hd ma 1 2 remux dts

 
  The Jungle Book 1-2 (1967-2003) Bluray Remux 1080p AVC DTS-HD MA 7.1
#1
The Jungle Book 1-2 (1967-2003) Bluray Remux 1080p AVC DTS-HD MA 7.1

[Image: tt0061852.jpg]

[Image: imdb.png]
https://www.imdb.com/title/tt0061852/
https://www.imdb.com/title/tt0283426/

[Image: info.png]
The Jungle Book 1967 EN.mkv
Format                      : Matroska
Format version              : Version 4 / Version 2
File size                   : 18.0 GiB
Duration                    : 1 h 18 min
Overall bit rate mode       : Variable
Overall bit rate            : 32.9 Mb/s
Movie name                  : The Jungle Book
Encoded date                : UTC 2018-02-20 20:31:42
Writing application         : mkvmerge v20.0.0 ('I Am The Sun') 64-bit
Writing library             : libebml v1.3.5 + libmatroska v1.4.8

Video
ID                          : 1
Format                      : AVC
Format/Info                 : Advanced Video Codec
Format profile              : [email protected]
Format settings             : CABAC / 4 Ref Frames
Format settings, CABAC      : Yes
Format settings, ReFrames   : 4 frames
Codec ID                    : V_MPEG4/ISO/AVC
Duration                    : 1 h 18 min
Bit rate mode               : Variable
Bit rate                    : 28.7 Mb/s
Maximum bit rate            : 31.0 Mb/s
Width                       : 1 920 pixels
Height                      : 1 080 pixels
Display aspect ratio        : 16:9
Frame rate mode             : Constant
Frame rate                  : 23.976 (24000/1001) FPS
Color space                 : YUV
Chroma subsampling          : 4:2:0
Bit depth                   : 8 bits
Scan type                   : Progressive
Bits/(Pixel*Frame)          : 0.577
Stream size                 : 15.7 GiB (87%)
Title                       : The Jungle Book
Language                    : English
Default                     : Yes
Forced                      : No

Audio
ID                          : 2
Format                      : DTS
Format/Info                 : Digital Theater Systems
Format profile              : MA / Core
Codec ID                    : A_DTS
Duration                    : 1 h 18 min
Bit rate mode               : Variable / Constant
Bit rate                    : 4 143 kb/s / 1 509 kb/s
Channel(s)                  : 8 channels / 6 channels
Channel positions           : Front: L C R, Side: L R, Back: L R, LFE / Front: L C R, Side: L R, LFE
Sampling rate               : 48.0 kHz
Frame rate                  : 93.750 FPS (512 SPF)
Bit depth                   : 24 bits
Compression mode            : Lossless / Lossy
Stream size                 : 2.27 GiB (13%)
Title                       : English
Language                    : English
Default                     : Yes
Forced                      : No

Text #1
ID                          : 3
Format                      : PGS
Muxing mode                 : zlib
Codec ID                    : S_HDMV/PGS
Codec ID/Info               : Picture based subtitle format used on BDs/HD-DVDs
Duration                    : 1 h 15 min
Bit rate                    : 37.6 kb/s
Count of elements           : 2164
Stream size                 : 20.2 MiB (0%)
Title                       : English
Language                    : English
Default                     : No
Forced                      : No

Text #2
ID                          : 4
Format                      : PGS
Muxing mode                 : zlib
Codec ID                    : S_HDMV/PGS
Codec ID/Info               : Picture based subtitle format used on BDs/HD-DVDs
Duration                    : 1 h 15 min
Bit rate                    : 33.7 kb/s
Count of elements           : 1952
Stream size                 : 18.1 MiB (0%)
Title                       : Turkish
Language                    : Turkish
Default                     : Yes
Forced                      : No

[Image: rocV1A.jpg]

[Image: pEJ85r.jpg]

[Image: tdown.png]

For Only Vip Members

The Jungle Book 1-2 (1967-2003) Bluray Remux 1080p AVC DTS-HD MA 7.1 VIP
Reply


Possibly Related Threads…
Thread Author Replies Views Last Post
  The Asphalt Jungle 1950 Criterion Collection 1080p Blu-ray Remux AVC DTS-HD MA 1.0 - KAiJu 0 16 01-12-2022, 06:29 AM
Last Post: KAiJu
  Cold Creek Manor 2003 1080p Remux AVC DTS-HD MA 5.1-playBD KAiJu 0 17 01-07-2022, 12:19 PM
Last Post: KAiJu
  Monkeys Go Home 1967 1080p Blu-ray Remux AVC DD 2.0 - KRaLiMaRKo KAiJu 0 15 01-04-2022, 06:38 AM
Last Post: KAiJu
  Undead 2003 1080p BluRay REMUX AVC DTS-HD MA 5.1-TRiToN KAiJu 0 29 11-17-2021, 02:34 PM
Last Post: KAiJu
  The Brown Bunny 2003 1080p BluRay Remux MPEG-2 AC-3-NoGRP KAiJu 0 64 10-31-2021, 09:00 PM
Last Post: KAiJu

Forum Jump:


Users browsing this thread: 1 Guest(s)

Powered By MyBB
RSS RSS Syndication
Updated By iAndrew | 2022