Thread Rating:
  • 0 Vote(s) - 0 Average
  • 1
  • 2
  • 3
  • 4
  • 5

[-]
Tags
jason bluray 2002 x264 bourne 1080p the prodji 2016 dts collection

  The Jason Bourne Collection (2002-2016) BluRay 1080p DTS x264-PRoDJi
#1
The Jason Bourne Collection (2002-2016) BluRay 1080p DTS x264-PRoDJi

[Image: bourne1.jpg]

[Image: imdb.png]
https://www.imdb.com/title/tt0258463/
https://www.imdb.com/title/tt0440963/
https://www.imdb.com/title/tt0372183/
https://www.imdb.com/title/tt1194173/
https://www.imdb.com/title/tt4196776/

[Image: info.png]
Format : Matroska
Format version : Version 4
File size : 8.02 GiB
Duration : 1 h 58 min
Overall bit rate : 9 682 kb/s
Encoded date : UTC 2016-11-05 08:24:49
Writing application : mkvmerge v7.2.0 ('On Every Street') 64bit built on Sep 13 2014 15:52:10
Writing library : libebml v1.3.0 + libmatroska v1.4.1

Video
ID : 1
Format : AVC
Format/Info : Advanced Video Codec
Format profile : [email protected]
Format settings : CABAC / 4 Ref Frames
Format settings, CABAC : Yes
Format settings, RefFrames : 4 frames
Codec ID : V_MPEG4/ISO/AVC
Duration : 1 h 58 min
Bit rate : 7 515 kb/s
Width : 1 920 pixels
Height : 816 pixels
Display aspect ratio : 2.35:1
Frame rate mode : Constant
Frame rate : 23.976 (24000/1001) FPS
Color space : YUV
Chroma subsampling : 4:2:0
Bit depth : 8 bits
Scan type : Progressive
Bits/(Pixel*Frame) : 0.200
Stream size : 6.08 GiB (76%)
Title : @7515Kbps High Profiles @L4.1
Writing library : x264 core 148 r2638 7599210
Encoding settings : cabac=1 / ref=5 / deblock=1:-1:-1 / analyse=0x3:0x113 / me=umh / subme=9 / psy=1 / psy_rd=1.00:0.00 / mixed_ref=1 / me_range=24 / chroma_me=1 / trellis=2 / 8x8dct=1 / cqm=2 / deadzone=21,11 / fast_pskip=1 / chroma_qp_offset=-5 / threads=6 / lookahead_threads=1 / sliced_threads=0 / nr=0 / decimate=0 / interlaced=0 / bluray_compat=0 / constrained_intra=0 / bframes=5 / b_pyramid=1 / b_adapt=2 / b_bias=2 / direct=3 / weightb=1 / open_gop=0 / weightp=2 / keyint=230 / keyint_min=22 / scenecut=40 / intra_refresh=0 / rc_lookahead=45 / rc=2pass / mbtree=1 / bitrate=7515 / ratetol=1.0 / qcomp=0.60 / qpmin=10 / qpmax=41 / qpstep=4 / cplxblur=20.0 / qblur=0.5 / ip_ratio=1.30 / aq=1:1.00
Language : English
Default : Yes
Forced : No

Audio #1
ID : 2
Format : DTS
Format/Info : Digital Theater Systems
Codec ID : A_DTS
Duration : 1 h 58 min
Bit rate mode : Constant
Bit rate : 1 509 kb/s
Channel(s) : 6 channels
Channel layout : C L R Ls Rs LFE
Sampling rate : 48.0 kHz
Frame rate : 93.750 FPS (512 SPF)
Bit depth : 24 bits
Compression mode : Lossy
Stream size : 1.25 GiB (16%)
Title : [email protected] 6 chnls
Language : English
Default : Yes
Forced : No

Audio #2
ID : 3
Format : AC-3
Format/Info : Audio Coding 3
Commercial name : Dolby Digital
Codec ID : A_AC3
Duration : 1 h 58 min
Bit rate mode : Constant
Bit rate : 640 kb/s
Channel(s) : 6 channels
Channel layout : L R C LFE Ls Rs
Sampling rate : 48.0 kHz
Frame rate : 31.250 FPS (1536 SPF)
Bit depth : 16 bits
Compression mode : Lossy
Stream size : 543 MiB (7%)
Title : [email protected] 6 chnls
Language : Turkish
Service kind : Complete Main
Default : No
Forced : No

Text #1
ID : 4
Format : PGS
Muxing mode : zlib
Codec ID : S_HDMV/PGS
Codec ID/Info : Picture based subtitle format used on BDs/HD-DVDs
Language : English
Default : Yes
Forced : No

Text #2
ID : 5
Format : PGS
Muxing mode : zlib
Codec ID : S_HDMV/PGS
Codec ID/Info : Picture based subtitle format used on BDs/HD-DVDs
Language : Turkish
Default : No
Forced : No

Menu
00:00:00.000 : en:"Dead" Man
00:06:28.179 : en:It's Not Coming Back
00:08:34.847 : en:To Switzerland
00:11:38.531 : en:The Wombosi Problem
00:13:38.359 : en:My Name is Jason Bourne
00:19:43.307 : en:The American Embassy
00:25:41.039 : en:Find Jason Bourne
00:29:15.462 : en:Marie Helena Kreutz
00:36:36.319 : en:Home
00:43:56.759 : en:Assassin
00:48:27.738 : en:The Right Thing
00:51:52.234 : enTonguearis Pursuit
01:02:01.467 : en:Mr Kane's Hotel Bill
01:10:01.655 : en:The Wombosi Connection
01:18:44.928 : en:Eamon
01:24:20.055 : en:The Killer Outside
01:32:00.181 : en:Bourne's Game
01:38:59.308 : en:A Malfunctioning Weapon
01:45:33.327 : en:Forced Retirement
01:51:53.915 : en:End Titles

[Image: tdown.png]

For Only Vip Members
Reply


Possibly Related Threads…
Thread Author Replies Views Last Post
  Contratiempo (2016) Bluray 1080p TR-EN DD5.1 x264-BdC admin 0 50 08-03-2019, 10:38 AM
Last Post: admin
  DC Showcase The Spectre (2010) BluRay 1080p DTS x264-PRoDJi admin 2 333 07-24-2019, 06:27 PM
Last Post: admin
  DC Universe Animaton Movie (1993-2008) Boxset Bluray 1080p TR-EN x264 DTS 5.1-PRoDJi admin 0 91 07-20-2019, 05:30 PM
Last Post: admin
  The Hours (2002) Bluray 1080p DUAL DTS x264-NoGroup admin 0 151 05-26-2019, 09:54 AM
Last Post: admin
  The House (1985-1992) Collection BluRay 1080p DTS x264-PRoDJi admin 3 455 05-13-2019, 02:39 PM
Last Post: Brooks

Forum Jump:


Users browsing this thread: 1 Guest(s)

Powered By MyBB
Theme By Audentio Design
Updated By iAndrew | 2018