Thread Rating:
  • 0 Vote(s) - 0 Average
  • 1
  • 2
  • 3
  • 4
  • 5

[-]
Tags
bluray 2015 x264 1080p the prodji human centipede trilogy dts 2009

  The Human Centipede (2009-2015) Trilogy BluRay 1080p DTS x264-PRoDJi
#1
The Human Centipede (2009-2015) Trilogy BluRay 1080p DTS x264-PRoDJi

[Image: human.jpg]

[Image: imdb.png]
https://www.imdb.com/title/tt1467304/
https://www.imdb.com/title/tt1530509/
https://www.imdb.com/title/tt1883367/

[Image: info.png]
Format : Matroska
Format version : Version 4
File size : 8.13 GiB
Duration : 1 h 31 min
Overall bit rate : 12.7 Mb/s
Movie name : PRoDJi
Encoded date : UTC 2017-05-19 20:49:37
Writing application : mkvmerge v11.0.0 ('Alive') 64bit
Writing library : libebml v1.3.4 + libmatroska v1.4.5

Video
ID : 1
Format : AVC
Format/Info : Advanced Video Codec
Format profile : [email protected]
Format settings : CABAC / 3 Ref Frames
Format settings, CABAC : Yes
Format settings, RefFrames : 3 frames
Codec ID : V_MPEG4/ISO/AVC
Duration : 1 h 31 min
Bit rate : 11.0 Mb/s
Width : 1 920 pixels
Height : 1 080 pixels
Display aspect ratio : 16:9
Frame rate mode : Constant
Frame rate : 23.976 (24000/1001) FPS
Color space : YUV
Chroma subsampling : 4:2:0
Bit depth : 8 bits
Scan type : Progressive
Bits/(Pixel*Frame) : 0.220
Stream size : 7.04 GiB (87%)
Title : AVC PRoDJi
Writing library : x264 core 148 r2744 b97ae06
Encoding settings : cabac=1 / ref=4 / deblock=1:-1:-1 / analyse=0x3:0x113 / me=umh / subme=7 / psy=1 / psy_rd=1.00:0.00 / mixed_ref=1 / me_range=24 / chroma_me=1 / trellis=2 / 8x8dct=1 / cqm=2 / deadzone=21,11 / fast_pskip=1 / chroma_qp_offset=-5 / threads=12 / lookahead_threads=3 / sliced_threads=0 / nr=0 / decimate=0 / interlaced=0 / bluray_compat=0 / constrained_intra=0 / bframes=5 / b_pyramid=1 / b_adapt=2 / b_bias=2 / direct=3 / weightb=1 / open_gop=0 / weightp=2 / keyint=230 / keyint_min=22 / scenecut=40 / intra_refresh=0 / rc_lookahead=45 / rc=2pass / mbtree=1 / bitrate=10956 / ratetol=1.0 / qcomp=0.60 / qpmin=10 / qpmax=41 / qpstep=4 / cplxblur=20.0 / qblur=0.5 / ip_ratio=1.30 / aq=1:1.00
Language : English
Default : Yes
Forced : No

Audio #1
ID : 2
Format : DTS
Format/Info : Digital Theater Systems
Codec ID : A_DTS
Duration : 1 h 31 min
Bit rate mode : Constant
Bit rate : 1 509 kb/s
Channel(s) : 6 channels
Channel layout : C L R Ls Rs LFE
Sampling rate : 48.0 kHz
Frame rate : 93.750 FPS (512 SPF)
Bit depth : 24 bits
Compression mode : Lossy
Stream size : 993 MiB (12%)
Title : English DTS, 5.1 channels, 1509kbps, 48kHz
Language : English
Default : Yes
Forced : No

Audio #2
ID : 3
Format : AC-3
Format/Info : Audio Coding 3
Commercial name : Dolby Digital
Codec ID : A_AC3
Duration : 1 h 31 min
Bit rate mode : Constant
Bit rate : 192 kb/s
Channel(s) : 2 channels
Channel layout : L R
Sampling rate : 48.0 kHz
Frame rate : 31.250 FPS (1536 SPF)
Bit depth : 16 bits
Compression mode : Lossy
Stream size : 126 MiB (2%)
Title : Commentary by Tom Six
Language : English
Service kind : Complete Main
Default : No
Forced : No

Text #1
ID : 4
Format : UTF-8
Codec ID : S_TEXT/UTF8
Codec ID/Info : UTF-8 Plain Text
Duration : 1 h 25 min
Bit rate : 14 b/s
Count of elements : 427
Stream size : 9.02 KiB (0%)
Title : English
Language : English
Default : Yes
Forced : No

Text #2
ID : 5
Format : UTF-8
Codec ID : S_TEXT/UTF8
Codec ID/Info : UTF-8 Plain Text
Duration : 1 h 26 min
Bit rate : 24 b/s
Count of elements : 538
Stream size : 15.2 KiB (0%)
Title : Turkish
Language : Turkish
Default : No
Forced : No

Menu
00:00:00.000 : en:Opening Credits
00:04:40.240 : en:Lindsay and Jenny
00:10:14.200 : en:Through the Woods
00:18:16.200 : enBig Grinrugged
00:26:48.240 : en:Good Morning
00:38:43.239 : en:The Doctor's Symposium
00:42:38.000 : en:You're a Sick Man
00:49:59.720 : en:Selecting the Middle
00:58:45.600 : en:The Process Begins
01:08:31.680 : en:I've Done It!
01:18:55.960 : en:Sequence Training
01:25:43.640 : enBig Grinevelopments

[Image: 1.jpg]

[Image: 2.jpg]

[Image: tdown.png]

For Only Vip Members
Reply


Possibly Related Threads…
Thread Author Replies Views Last Post
  Truman (2015) Bluray 1080p EN-TR x264-usury admin 0 21 08-18-2019, 05:30 PM
Last Post: admin
  DC Showcase The Spectre (2010) BluRay 1080p DTS x264-PRoDJi admin 2 333 07-24-2019, 06:27 PM
Last Post: admin
  DC Universe Animaton Movie (1993-2008) Boxset Bluray 1080p TR-EN x264 DTS 5.1-PRoDJi admin 0 91 07-20-2019, 05:30 PM
Last Post: admin
  Grace (2009) Bluray 1080p x264-CiNEFiLE admin 1 105 07-05-2019, 04:41 PM
Last Post: marwan28
  The House (1985-1992) Collection BluRay 1080p DTS x264-PRoDJi admin 3 455 05-13-2019, 02:39 PM
Last Post: Brooks

Forum Jump:


Users browsing this thread: 1 Guest(s)

Powered By MyBB
Theme By Audentio Design
Updated By iAndrew | 2018