Thread Rating:
  • 0 Vote(s) - 0 Average
  • 1
  • 2
  • 3
  • 4
  • 5

[-]
Tags
dd bluray hitmans bodyguard avc 1080p 2017 the 1 remux 5

  The Hitmans Bodyguard (2017) Bluray Remux 1080p AVC DD 5.1
#1
The Hitmans Bodyguard (2017) Bluray Remux 1080p AVC DD 5.1

[Image: tt1959563.jpg]

[Image: imdb.png]
https://www.imdb.com/title/tt1959563/

[Image: info.png]
The Hitman's Bodyguard 2017 EN.mkv
Format                      : Matroska
Format version              : Version 4 / Version 2
File size                   : 29.3 GiB
Duration                    : 1 h 58 min
Overall bit rate mode       : Variable
Overall bit rate            : 35.4 Mb/s
Movie name                  : The Hitman's Bodyguard
Encoded date                : UTC 2017-11-22 09:23:38
Writing application         : mkvmerge v18.0.0 ('Apricity') 64-bit
Writing library             : libebml v1.3.5 + libmatroska v1.4.8

Video
ID                          : 1
Format                      : AVC
Format/Info                 : Advanced Video Codec
Format profile              : [email protected]
Format settings, CABAC      : Yes
Format settings, ReFrames   : 4 frames
Codec ID                    : V_MPEG4/ISO/AVC
Duration                    : 1 h 58 min
Bit rate mode               : Variable
Bit rate                    : 34.7 Mb/s
Maximum bit rate            : 37.0 Mb/s
Width                       : 1 920 pixels
Height                      : 1 080 pixels
Display aspect ratio        : 16:9
Frame rate mode             : Constant
Frame rate                  : 23.976 (24000/1001) FPS
Color space                 : YUV
Chroma subsampling          : 4:2:0
Bit depth                   : 8 bits
Scan type                   : Progressive
Bits/(Pixel*Frame)          : 0.698
Stream size                 : 28.7 GiB (98%)
Title                       : The Hitman's Bodyguard
Language                    : English
Default                     : Yes
Forced                      : No

Audio
ID                          : 2
Format                      : AC-3
Format/Info                 : Audio Coding 3
Format settings, Endianness : Big
Codec ID                    : A_AC3
Duration                    : 1 h 58 min
Bit rate mode               : Constant
Bit rate                    : 640 kb/s
Channel(s)                  : 6 channels
Channel positions           : Front: L C R, Side: L R, LFE
Sampling rate               : 48.0 kHz
Frame rate                  : 31.250 FPS (1536 spf)
Bit depth                   : 16 bits
Compression mode            : Lossy
Stream size                 : 541 MiB (2%)
Title                       : English
Language                    : English
Service kind                : Complete Main
Default                     : No
Forced                      : No

Text #1
ID                          : 3
Format                      : PGS
Muxing mode                 : zlib
Codec ID                    : S_HDMV/PGS
Codec ID/Info               : Picture based subtitle format used on BDs/HD-DVDs
Duration                    : 1 h 57 min
Bit rate                    : 52.6 kb/s
Count of elements           : 3914
Stream size                 : 44.3 MiB (0%)
Title                       : English SDH
Language                    : English
Default                     : No
Forced                      : No

Text #2
ID                          : 4
Format                      : PGS
Muxing mode                 : zlib
Codec ID                    : S_HDMV/PGS
Codec ID/Info               : Picture based subtitle format used on BDs/HD-DVDs
Duration                    : 1 h 56 min
Bit rate                    : 29.0 kb/s
Count of elements           : 2338
Stream size                 : 24.2 MiB (0%)
Title                       : Turkish
Language                    : Turkish
Default                     : Yes
Forced                      : No

[Image: 47783559872_66c766d698_b.jpg]

[Image: 46919357035_449c174da5_b.jpg]

[Image: tdown.png]

For Only Vip Members

The Hitmans Bodyguard (2017) Bluray Remux 1080p AVC DD 5.1 VIP
Reply


Possibly Related Threads…
Thread Author Replies Views Last Post
  The Bodyguard (1992) Bluray Remux 1080p AVC DTS-HD MA 5.1 admin 0 907 06-28-2019, 08:07 PM
Last Post: admin
  The Bodyguard 2 (2007) Bluray Remux 1080p TR-TAI AVC DTS-HD MA 5.1 admin 0 948 05-11-2019, 09:09 AM
Last Post: admin

Forum Jump:


Users browsing this thread: 1 Guest(s)

Powered By MyBB
Theme By Audentio Design
Updated By iAndrew | 2018